<?xml version="1.0" standalone="no"?>
<!DOCTYPE svg PUBLIC "-//W3C//DTD SVG 1.1//EN" "http://www.w3.org/Graphics/SVG/1.1/DTD/svg11.dtd" >
<svg xmlns="http://www.w3.org/2000/svg">
<metadata>
<json>
<![CDATA[
{
	"fontFamily": "Phosphor-Fill",
	"majorVersion": 2,
	"minorVersion": 0,
	"fontURL": "https://phosphoricons.com",
	"copyright": "2023",
	"designer": "Helena Zhang & Tobias Fried",
	"designerURL": "https://phosphoricons.com",
	"license": "MIT",
	"licenseURL": "https://github.com/phosphor-icons/homepage/blob/master/LICENSE",
	"version": "Version 2.0",
	"fontId": "Phosphor-Fill",
	"psName": "Phosphor-Fill",
	"subFamily": "Regular",
	"fullName": "Phosphor-Fill",
	"description": "Font generated by IcoMoon."
}
]]>
</json>
</metadata>
<defs>
<font id="Phosphor-Fill" horiz-adv-x="1024">
<font-face units-per-em="1024" ascent="960" descent="-64" />
<missing-glyph horiz-adv-x="1024" />
<glyph unicode="&#x20;" horiz-adv-x="512" d="" />
<glyph unicode="&#xe900;" glyph-name="address-book-fill" data-tags="address-book-fill" d="M640 512c0-53.019-42.981-96-96-96s-96 42.981-96 96c0 53.019 42.981 96 96 96v0c53.019 0 96-42.981 96-96v0zM896 800v-704c0-35.346-28.654-64-64-64v0h-576c-35.346 0-64 28.654-64 64v0 96h-64c-17.673 0-32 14.327-32 32s14.327 32 32 32v0h64v160h-64c-17.673 0-32 14.327-32 32s14.327 32 32 32v0h64v160h-64c-17.673 0-32 14.327-32 32s14.327 32 32 32v0h64v96c0 35.346 28.654 64 64 64v0h576c35.346 0 64-28.654 64-64v0zM761.6 307.2c-28.241 37.584-65.16 67.174-107.866 86.075l-1.734 0.685c32.079 29.362 52.12 71.421 52.12 118.161 0 88.366-71.634 160-160 160s-160-71.634-160-160c0-46.739 20.041-88.798 51.999-118.051l0.121-0.109c-44.535-19.552-81.538-49.149-109.34-86.067l-0.5-0.693c-3.996-5.281-6.4-11.96-6.4-19.2 0-17.673 14.327-32 32-32 10.433 0 19.7 4.993 25.542 12.72l0.058 0.080c38.35 50.747 98.585 83.2 166.4 83.2s128.050-32.453 166.021-82.677l0.379-0.523c5.9-7.807 15.167-12.8 25.6-12.8 17.673 0 32 14.327 32 32 0 7.24-2.404 13.919-6.458 19.28l0.058-0.080z" />
<glyph unicode="&#xe901;" glyph-name="airplane-fill" data-tags="airplane-fill" d="M960 416v-128c0-17.673-14.327-32-32-32v0c-0.021 0-0.046 0-0.070 0-2.199 0-4.343 0.233-6.409 0.676l0.2-0.036-297.72 59.36v-94.92l70.64-70.6c5.752-5.758 9.322-13.699 9.36-22.473v-96.007c0-0.016 0-0.036 0-0.055 0-17.673-14.327-32-32-32-4.325 0-8.449 0.858-12.213 2.413l0.213-0.078-148 59.24-148-59.24c-3.551-1.477-7.675-2.335-12-2.335-17.673 0-32 14.327-32 32 0 0.019 0 0.039 0 0.058v-0.003 96c0 0.007 0 0.016 0 0.025 0 8.83 3.577 16.825 9.36 22.615v0l70.64 70.6v94.76l-297.72-59.36c-1.867-0.407-4.011-0.64-6.21-0.64-0.025 0-0.050 0-0.074 0h0.004c-17.673 0-32 14.327-32 32v0 128c0 0.007 0 0.015 0 0.023 0 12.453 7.113 23.245 17.498 28.533l0.182 0.084 318.32 159.12v180.24c0 61.856 50.144 112 112 112s112-50.144 112-112v0-180.24l318.32-159.12c10.567-5.373 17.68-16.164 17.68-28.617 0-0.008 0-0.016 0-0.024v0.001z" />
<glyph unicode="&#xe902;" glyph-name="airplane-in-flight-fill" data-tags="airplane-in-flight-fill" d="M896 96c0-17.673-14.327-32-32-32v0h-576c-17.673 0-32 14.327-32 32s14.327 32 32 32v0h576c17.673 0 32-14.327 32-32v0zM832 576h-242.72l-182.64 182.64c-5.79 5.783-13.785 9.36-22.615 9.36-0.009 0-0.018 0-0.027 0h-31.999c-35.331-0.020-63.965-28.666-63.965-64 0-7.241 1.202-14.2 3.418-20.691l-0.134 0.451 36-107.76h-90.040l-86.64 86.64c-5.79 5.783-13.785 9.36-22.615 9.36-0.009 0-0.018 0-0.027 0h-31.999c-35.321-0.033-63.942-28.674-63.942-64 0-6.562 0.988-12.893 2.822-18.853l-0.12 0.453 56.28-187.56c20.048-66.467 80.724-114.042 152.511-114.042 0.256 0 0.512 0.001 0.768 0.002h715.681c17.673 0 32 14.327 32 32v0 96c0 88.366-71.634 160-160 160v0z" />
<glyph unicode="&#xe903;" glyph-name="airplane-landing-fill" data-tags="airplane-landing-fill" d="M992 96c0-17.673-14.327-32-32-32v0h-576c-17.673 0-32 14.327-32 32s14.327 32 32 32v0h576c17.673 0 32-14.327 32-32v0zM896 192c17.673 0 32 14.327 32 32v0 142.72c-0.179 73.046-49.121 134.612-115.987 153.88l-1.133 0.28-243.36 68-90 214.52c-3.626 8.505-10.576 14.998-19.175 17.933l-0.225 0.067-21.88 7.28c-6.040 2.082-12.999 3.285-20.24 3.285-35.334 0-63.98-28.634-64-63.963v-117.562l-119.48 34.040-42.44 117.48c-3.403 9.221-10.666 16.313-19.775 19.413l-0.225 0.067-21.88 7.28c-6.028 2.074-12.974 3.271-20.2 3.271-35.343 0-63.995-28.649-64-63.991v0-222.88c0.165-72.948 48.977-134.451 115.707-153.799l1.133-0.281 706.52-197.84c2.588-0.758 5.562-1.196 8.638-1.2h0.002z" />
<glyph unicode="&#xe904;" glyph-name="airplane-takeoff-fill" data-tags="airplane-takeoff-fill" d="M704 96c0-17.673-14.327-32-32-32v0h-576c-17.673 0-32 14.327-32 32s14.327 32 32 32v0h576c17.673 0 32-14.327 32-32v0zM985.24 612.96l-75.040 96.16c-29.435 36.052-73.88 58.887-123.658 58.887-30.065 0-58.184-8.33-82.176-22.808l0.715 0.4-206.28-123.12-215.76 79.36c-3.322 1.277-7.164 2.017-11.18 2.017s-7.858-0.74-11.4-2.090l0.22 0.074-28.68-10.92-1.28-0.52c-22.985-10.049-38.755-32.588-38.755-58.811 0-18.594 7.93-35.337 20.592-47.030l0.043-0.040 87.4-84.76-80.68-48.8-113.040 38.16c-3.048 1.062-6.561 1.675-10.218 1.675-5.135 0-9.987-1.209-14.288-3.359l0.185 0.084-12-5.88c-22.516-10.242-37.889-32.541-37.889-58.431 0-18.254 7.642-34.724 19.902-46.383l0.027-0.025 144.48-141.56c28.397-26.884 66.822-43.43 109.11-43.48h0.010c29.881 0.050 57.838 8.247 81.78 22.487l-0.74-0.407 589.64 352c9.399 5.688 15.585 15.856 15.585 27.469 0 7.44-2.539 14.286-6.797 19.721l0.053-0.070z" />
<glyph unicode="&#xe905;" glyph-name="airplane-tilt-fill" data-tags="airplane-tilt-fill" d="M862.080 170.96c1.221-3.253 1.927-7.013 1.927-10.938 0-8.834-3.58-16.832-9.367-22.622l-96-96c-5.79-5.804-13.795-9.396-22.639-9.4h-0.001c-0.472-0.028-1.024-0.044-1.58-0.044s-1.108 0.016-1.656 0.048l0.076-0.003c-9.823 0.994-18.233 6.299-23.408 13.966l-0.072 0.114-176.28 264.48-85.080-84.92v-97.64c-0.004-8.825-3.58-16.814-9.36-22.6v0s-56-56.24-63.52-63.52c-3.058-3.197-6.763-5.748-10.909-7.444l-0.211-0.076c-3.57-1.495-7.72-2.364-12.072-2.364-13.259 0-24.634 8.064-29.49 19.554l-0.079 0.21-59.040 147.64-147.32 58.92c-11.888 4.849-20.114 16.319-20.114 29.711 0 8.828 3.574 16.82 9.355 22.61v0l64 64c5.79 5.784 13.785 9.36 22.615 9.36 0.051 0 0.102 0 0.153 0h97.592l85.080 85.080-264.44 176.32c-8.652 5.819-14.268 15.573-14.268 26.638 0 8.844 3.588 16.85 9.387 22.642v0l96 96c5.79 5.788 13.788 9.367 22.622 9.367 3.925 0 7.685-0.707 11.159-1.999l-0.221 0.072 343.76-125 126.12 126.12c20.269 20.269 48.27 32.806 79.2 32.806 61.859 0 112.006-50.147 112.006-112.006 0-30.93-12.537-58.931-32.806-79.2l-126.12-126.12z" />
<glyph unicode="&#xe906;" glyph-name="airplay-fill" data-tags="airplay-fill" d="M728.28 116.84c4.796-5.563 7.716-12.86 7.716-20.84 0-17.672-14.325-31.998-31.996-32h-384c-17.672 0.002-31.996 14.328-31.996 32 0 7.98 2.921 15.277 7.751 20.882l-0.035-0.042 192 224c5.904 6.861 14.598 11.179 24.3 11.179s18.396-4.318 24.265-11.137l0.035-0.042zM832 800h-640c-53.019 0-96-42.981-96-96v0-448c0-53.019 42.981-96 96-96v0h49.040c4.797 0.049 9.082 2.202 11.982 5.579l185.938 216.901c17.711 20.57 43.784 33.514 72.88 33.514s55.169-12.944 72.774-33.389l0.106-0.125 186.080-216.88c2.918-3.398 7.203-5.551 11.991-5.6h49.209c53.019 0 96 42.981 96 96v0 448c0 53.019-42.981 96-96 96v0z" />
<glyph unicode="&#xe907;" glyph-name="air-traffic-control-fill" data-tags="air-traffic-control-fill" d="M916.44 708.72c-11.725 16.584-30.822 27.28-52.418 27.28-0.008 0-0.015 0-0.023 0h-319.999v128h64c17.673 0 32 14.327 32 32s-14.327 32-32 32v0h-192c-17.673 0-32-14.327-32-32s14.327-32 32-32v0h64v-128h-320c-35.284-0.082-63.856-28.704-63.856-64 0-7.851 1.414-15.372 4.001-22.323l-0.144 0.442 104.76-288c9.187-24.737 32.563-42.056 59.992-42.12h494.528c27.437 0.064 50.813 17.383 59.856 41.678l0.144 0.442 104.76 288c2.47 6.541 3.899 14.103 3.899 21.998 0 13.7-4.305 26.394-11.635 36.805l0.135-0.203zM410.080 384.52c-1.713-0.331-3.684-0.52-5.698-0.52-0.022 0-0.043 0-0.065 0h0.003c-15.633 0.023-28.636 11.251-31.409 26.082l-0.031 0.198-40.88 224c-0.328 1.72-0.515 3.698-0.515 5.72 0 17.681 14.334 32.015 32.015 32.015 15.659 0 28.693-11.243 31.469-26.097l0.031-0.198 40.72-224c0.33-1.725 0.519-3.709 0.519-5.738 0-15.608-11.174-28.606-25.958-31.431l-0.2-0.032zM692 634.28l-40.76-224c-2.804-15.029-15.807-26.257-31.438-26.28h-0.002c-0.018 0-0.040 0-0.062 0-2.015 0-3.985 0.189-5.895 0.551l0.196-0.031c-15.041 2.809-26.275 15.834-26.275 31.484 0 2.021 0.187 3.998 0.545 5.914l-0.031-0.198 40.72 224c2.807 15.052 15.841 26.295 31.5 26.295 17.681 0 32.015-14.334 32.015-32.015 0-2.022-0.187-4-0.546-5.918l0.031 0.198zM640 240v-176c0-17.673-14.327-32-32-32v0h-192c-17.673 0-32 14.327-32 32v0 176c0 8.837 7.163 16 16 16v0h224c8.837 0 16-7.163 16-16v0z" />
<glyph unicode="&#xe908;" glyph-name="alarm-fill" data-tags="alarm-fill" d="M246.64 841.36l-128-128c-5.794-5.794-13.799-9.378-22.64-9.378-17.683 0-32.018 14.335-32.018 32.018 0 8.841 3.584 16.846 9.378 22.64l128 128c5.794 5.794 13.799 9.378 22.64 9.378 17.683 0 32.018-14.335 32.018-32.018 0-8.841-3.584-16.846-9.378-22.64v0zM950.64 758.64l-128 128c-5.794 5.794-13.799 9.378-22.64 9.378-17.683 0-32.018-14.335-32.018-32.018 0-8.841 3.584-16.846 9.378-22.64v0l128-128c5.794-5.794 13.799-9.378 22.64-9.378 17.683 0 32.018 14.335 32.018 32.018 0 8.841-3.584 16.846-9.378 22.64v0zM896 448c0-212.077-171.923-384-384-384s-384 171.923-384 384c0 212.077 171.923 384 384 384v0c211.976-0.25 383.75-172.023 384-383.976v-0.024zM768 448c0 17.673-14.327 32-32 32v0h-192v192c0 17.673-14.327 32-32 32s-32-14.327-32-32v0-224c0-17.673 14.327-32 32-32v0h224c17.673 0 32 14.327 32 32v0z" />
<glyph unicode="&#xe909;" glyph-name="alien-fill" data-tags="alien-fill" d="M512 896c-211.976-0.25-383.75-172.023-384-383.976v-0.024c0-96 50.24-220.24 134.44-332 84.72-112.6 178-180 249.56-180s164.84 67.24 249.56 180c84.2 112 134.44 236 134.44 332-0.25 211.976-172.023 383.75-383.976 384h-0.024zM256 496c0 26.51 21.49 48 48 48v0c79.529 0 144-64.471 144-144v0c0-26.51-21.49-48-48-48v0c-79.529 0-144 64.471-144 144v0zM576 160h-128c-17.673 0-32 14.327-32 32s14.327 32 32 32v0h128c17.673 0 32-14.327 32-32s-14.327-32-32-32v0zM624 352c-26.51 0-48 21.49-48 48v0c0 79.529 64.471 144 144 144v0c26.51 0 48-21.49 48-48v0c0-79.529-64.471-144-144-144v0z" />
<glyph unicode="&#xe90a;" glyph-name="align-bottom-fill" data-tags="align-bottom-fill" d="M896 96c0-17.673-14.327-32-32-32v0h-704c-17.673 0-32 14.327-32 32s14.327 32 32 32v0h704c17.673 0 32-14.327 32-32v0zM608 192h160c35.346 0 64 28.654 64 64v0 384c0 35.346-28.654 64-64 64v0h-160c-35.346 0-64-28.654-64-64v0-384c0-35.346 28.654-64 64-64v0zM256 192h160c35.346 0 64 28.654 64 64v0 544c0 35.346-28.654 64-64 64v0h-160c-35.346 0-64-28.654-64-64v0-544c0-35.346 28.654-64 64-64v0z" />
<glyph unicode="&#xe90b;" glyph-name="align-bottom-simple-fill" data-tags="align-bottom-simple-fill" d="M832 32c0-17.673-14.327-32-32-32v0h-576c-17.673 0-32 14.327-32 32s14.327 32 32 32v0h576c17.673 0 32-14.327 32-32v0zM384 128h256c35.346 0 64 28.654 64 64v0 608c0 35.346-28.654 64-64 64v0h-256c-35.346 0-64-28.654-64-64v0-608c0-35.346 28.654-64 64-64v0z" />
<glyph unicode="&#xe90c;" glyph-name="align-center-horizontal-fill" data-tags="align-center-horizontal-fill" d="M896 352v-160c0-35.346-28.654-64-64-64v0h-288v-64c0-17.673-14.327-32-32-32s-32 14.327-32 32v0 64h-288c-35.346 0-64 28.654-64 64v0 160c0 35.346 28.654 64 64 64v0h288v64h-192c-35.346 0-64 28.654-64 64v0 160c0 35.346 28.654 64 64 64v0h192v64c0 17.673 14.327 32 32 32s32-14.327 32-32v0-64h192c35.346 0 64-28.654 64-64v0-160c0-35.346-28.654-64-64-64v0h-192v-64h288c35.346 0 64-28.654 64-64v0z" />
<glyph unicode="&#xe90d;" glyph-name="align-center-horizontal-simple-fill" data-tags="align-center-horizontal-simple-fill" d="M896 576v-256c0-35.346-28.654-64-64-64v0h-288v-128c0-17.673-14.327-32-32-32s-32 14.327-32 32v0 128h-288c-35.346 0-64 28.654-64 64v0 256c0 35.346 28.654 64 64 64v0h288v128c0 17.673 14.327 32 32 32s32-14.327 32-32v0-128h288c35.346 0 64-28.654 64-64v0z" />
<glyph unicode="&#xe90e;" glyph-name="align-center-vertical-fill" data-tags="align-center-vertical-fill" d="M928 448c0-17.673-14.327-32-32-32v0h-64v-192c0-35.346-28.654-64-64-64v0h-160c-35.346 0-64 28.654-64 64v0 192h-64v-288c0-35.346-28.654-64-64-64v0h-160c-35.346 0-64 28.654-64 64v0 288h-64c-17.673 0-32 14.327-32 32s14.327 32 32 32v0h64v288c0 35.346 28.654 64 64 64v0h160c35.346 0 64-28.654 64-64v0-288h64v192c0 35.346 28.654 64 64 64v0h160c35.346 0 64-28.654 64-64v0-192h64c17.673 0 32-14.327 32-32v0z" />
<glyph unicode="&#xe90f;" glyph-name="align-center-vertical-simple-fill" data-tags="align-center-vertical-simple-fill" d="M864 448c0-17.673-14.327-32-32-32v0h-128v-288c0-35.346-28.654-64-64-64v0h-256c-35.346 0-64 28.654-64 64v0 288h-128c-17.673 0-32 14.327-32 32s14.327 32 32 32v0h128v288c0 35.346 28.654 64 64 64v0h256c35.346 0 64-28.654 64-64v0-288h128c17.673 0 32-14.327 32-32v0z" />
<glyph unicode="&#xe910;" glyph-name="align-left-fill" data-tags="align-left-fill" d="M928 352v-160c0-35.346-28.654-64-64-64v0h-544c-35.346 0-64 28.654-64 64v0 160c0 35.346 28.654 64 64 64v0h544c35.346 0 64-28.654 64-64v0zM160 832c-17.673 0-32-14.327-32-32v0-704c0-17.673 14.327-32 32-32s32 14.327 32 32v0 704c0 17.673-14.327 32-32 32v0zM320 480h384c35.346 0 64 28.654 64 64v0 160c0 35.346-28.654 64-64 64v0h-384c-35.346 0-64-28.654-64-64v0-160c0-35.346 28.654-64 64-64v0z" />
<glyph unicode="&#xe911;" glyph-name="align-left-simple-fill" data-tags="align-left-simple-fill" d="M160 736v-576c0-17.673-14.327-32-32-32s-32 14.327-32 32v0 576c0 17.673 14.327 32 32 32s32-14.327 32-32v0zM896 640h-608c-35.346 0-64-28.654-64-64v0-256c0-35.346 28.654-64 64-64v0h608c35.346 0 64 28.654 64 64v0 256c0 35.346-28.654 64-64 64v0z" />
<glyph unicode="&#xe912;" glyph-name="align-right-fill" data-tags="align-right-fill" d="M896 800v-704c0-17.673-14.327-32-32-32s-32 14.327-32 32v0 704c0 17.673 14.327 32 32 32s32-14.327 32-32v0zM704 768h-384c-35.346 0-64-28.654-64-64v0-160c0-35.346 28.654-64 64-64v0h384c35.346 0 64 28.654 64 64v0 160c0 35.346-28.654 64-64 64v0zM704 416h-544c-35.346 0-64-28.654-64-64v0-160c0-35.346 28.654-64 64-64v0h544c35.346 0 64 28.654 64 64v0 160c0 35.346-28.654 64-64 64v0z" />
<glyph unicode="&#xe913;" glyph-name="align-right-simple-fill" data-tags="align-right-simple-fill" d="M928 736v-576c0-17.673-14.327-32-32-32s-32 14.327-32 32v0 576c0 17.673 14.327 32 32 32s32-14.327 32-32v0zM736 640h-608c-35.346 0-64-28.654-64-64v0-256c0-35.346 28.654-64 64-64v0h608c35.346 0 64 28.654 64 64v0 256c0 35.346-28.654 64-64 64v0z" />
<glyph unicode="&#xe914;" glyph-name="align-top-fill" data-tags="align-top-fill" d="M896 800c0-17.673-14.327-32-32-32v0h-704c-17.673 0-32 14.327-32 32s14.327 32 32 32v0h704c17.673 0 32-14.327 32-32v0zM768 704h-160c-35.346 0-64-28.654-64-64v0-384c0-35.346 28.654-64 64-64v0h160c35.346 0 64 28.654 64 64v0 384c0 35.346-28.654 64-64 64v0zM416 704h-160c-35.346 0-64-28.654-64-64v0-544c0-35.346 28.654-64 64-64v0h160c35.346 0 64 28.654 64 64v0 544c0 35.346-28.654 64-64 64v0z" />
<glyph unicode="&#xe915;" glyph-name="align-top-simple-fill" data-tags="align-top-simple-fill" d="M832 832c0-17.673-14.327-32-32-32v0h-576c-17.673 0-32 14.327-32 32s14.327 32 32 32v0h576c17.673 0 32-14.327 32-32v0zM640 736h-256c-35.346 0-64-28.654-64-64v0-608c0-35.346 28.654-64 64-64v0h256c35.346 0 64 28.654 64 64v0 608c0 35.346-28.654 64-64 64v0z" />
<glyph unicode="&#xe916;" glyph-name="amazon-logo-fill" data-tags="amazon-logo-fill" d="M608 416c0-53.019-42.981-96-96-96s-96 42.981-96 96c0 53.019 42.981 96 96 96v0c53.019 0 96-42.981 96-96v0zM928 448c0-229.75-186.25-416-416-416s-416 186.25-416 416c0 229.75 186.25 416 416 416v0c229.65-0.25 415.75-186.35 416-415.976v-0.024zM608 544v0c-26.407 19.978-59.8 32-96 32-88.366 0-160-71.634-160-160s71.634-160 160-160c36.2 0 69.593 12.022 96.402 32.292l-0.402-0.292c0-17.673 14.327-32 32-32s32 14.327 32 32v0 256c0 0.012 0 0.027 0 0.041 0 88.366-71.634 160-160 160-56.809 0-106.703-29.607-135.094-74.233l-0.386-0.649c-2.903-4.723-4.623-10.445-4.623-16.567 0-17.673 14.327-32 32-32 11.158 0 20.981 5.71 26.708 14.368l0.074 0.119c17.261 27.194 47.213 44.98 81.32 44.98 53.019 0 96-42.981 96-96 0-0.021 0-0.042 0-0.063v0.003zM787.24 281.56c-5.289 4.013-11.981 6.429-19.238 6.429-10.411 0-19.66-4.971-25.504-12.67l-0.058-0.079c-53.099-70.295-136.519-115.253-230.44-115.253s-177.341 44.958-229.914 114.527l-0.526 0.726c-5.879 8.113-15.325 13.33-25.989 13.33-17.673 0-32-14.327-32-32 0-7.511 2.587-14.417 6.92-19.876l-0.051 0.066c64.902-85.848 166.82-140.747 281.56-140.747s216.658 54.899 280.919 139.862l0.641 0.884c4.013 5.289 6.429 11.981 6.429 19.238 0 10.411-4.971 19.66-12.67 25.504l-0.079 0.058z" />
<glyph unicode="&#xe917;" glyph-name="anchor-fill" data-tags="anchor-fill" d="M896 384c-0.137-123.657-100.343-223.863-223.987-224h-0.013c-70.692 0-128-57.308-128-128v0c0-17.673-14.327-32-32-32s-32 14.327-32 32v0c0 70.692-57.308 128-128 128v0c-123.657 0.137-223.863 100.343-224 223.987v0.013c0 17.673 14.327 32 32 32s32-14.327 32-32v0c0-88.366 71.634-160 160-160v0c0.033 0 0.072 0 0.112 0 49.257 0 94.163-18.63 128.056-49.229l-0.168 0.149v273.080h-128c-17.673 0-32 14.327-32 32s14.327 32 32 32v0h128v116.68c-46.649 14.229-80 56.885-80 107.331 0 61.856 50.144 112 112 112s112-50.144 112-112c0-50.446-33.351-93.102-79.207-107.123l-0.793-0.209v-116.68h128c17.673 0 32-14.327 32-32s-14.327-32-32-32v0h-128v-273.080c33.725 30.45 78.631 49.080 127.888 49.080 0.039 0 0.078 0 0.118 0h-0.006c88.366 0 160 71.634 160 160v0c0 17.673 14.327 32 32 32s32-14.327 32-32v0z" />
<glyph unicode="&#xe918;" glyph-name="anchor-simple-fill" data-tags="anchor-simple-fill" d="M928 480c0-229.75-186.25-416-416-416s-416 186.25-416 416v0c0 17.673 14.327 32 32 32v0h96c17.673 0 32-14.327 32-32s-14.327-32-32-32v0h-62.56c16.147-169.034 149.521-302.394 317.136-318.41l1.424-0.11v467.2c-46.649 14.229-80 56.885-80 107.331 0 61.856 50.144 112 112 112s112-50.144 112-112c0-50.446-33.351-93.102-79.207-107.123l-0.793-0.209v-467.2c169.039 16.126 302.413 149.486 318.45 317.095l0.11 1.425h-62.56c-17.673 0-32 14.327-32 32s14.327 32 32 32v0h96c17.673 0 32-14.327 32-32v0z" />
<glyph unicode="&#xe919;" glyph-name="android-logo-fill" data-tags="android-logo-fill" d="M828.24 605.32c-2.96 2.96-5.96 5.84-8.96 8.68l99.36 99.36c5.794 5.794 9.378 13.799 9.378 22.64 0 17.683-14.335 32.018-32.018 32.018-8.841 0-16.846-3.584-22.64-9.378v0l-104-104c-71.428 50.819-160.442 81.245-256.562 81.245-96.584 0-185.992-30.72-258.988-82.922l1.35 0.917-104.52 104.76c-5.794 5.794-13.799 9.378-22.64 9.378-17.683 0-32.018-14.335-32.018-32.018 0-8.841 3.584-16.846 9.378-22.64l100.24-100.24c-87.291-82.83-141.6-199.683-141.6-329.221 0-0.148 0-0.295 0-0.442v0.023-91.48c0-35.346 28.654-64 64-64v0h768c35.346 0 64 28.654 64 64v0 96c0.001 0.368 0.002 0.804 0.002 1.24 0 123.59-50.383 235.413-131.73 316.049l-0.032 0.031zM368 288c-26.51 0-48 21.49-48 48s21.49 48 48 48c26.51 0 48-21.49 48-48v0c0-26.51-21.49-48-48-48v0zM656 288c-26.51 0-48 21.49-48 48s21.49 48 48 48c26.51 0 48-21.49 48-48v0c0-26.51-21.49-48-48-48v0z" />
<glyph unicode="&#xe91a;" glyph-name="angular-logo-fill" data-tags="angular-logo-fill" d="M512 542.12l52.28-94.12h-104.56zM927.72 667.76l-64-480c-1.466-10.735-8.074-19.659-17.218-24.316l-0.182-0.084-320-160c-4.172-2.133-9.1-3.383-14.32-3.383s-10.148 1.25-14.502 3.467l0.182-0.084-320 160c-9.326 4.741-15.934 13.665-17.381 24.234l-0.019 0.166-64 480c-0.178 1.27-0.28 2.736-0.28 4.227 0 13.227 8.025 24.579 19.471 29.454l0.209 0.079 384 160c3.637 1.574 7.871 2.49 12.32 2.49s8.683-0.916 12.526-2.569l-0.206 0.079 384-160c11.656-4.954 19.68-16.307 19.68-29.533 0-1.49-0.102-2.957-0.299-4.393l0.019 0.167zM700 335.52l-160 288c-5.565 9.917-16.013 16.508-28 16.508s-22.435-6.591-27.917-16.347l-0.083-0.161-160-288c-2.526-4.474-4.014-9.823-4.014-15.52 0-17.681 14.333-32.014 32.014-32.014 11.984 0 22.43 6.585 27.917 16.333l0.083 0.161 44 79.52h176l44-79.52c5.57-9.909 16.016-16.494 28-16.494 17.681 0 32.014 14.333 32.014 32.014 0 5.697-1.488 11.046-4.097 15.681l0.083-0.161z" />
<glyph unicode="&#xe91b;" glyph-name="aperture-fill" data-tags="aperture-fill" d="M928 448c0 0.002 0 0.005 0 0.007 0 229.75-186.25 416-416 416-114.877 0-218.878-46.564-294.16-121.847v0c-75.283-75.282-121.847-179.283-121.847-294.16 0-229.75 186.25-416 416-416 0.003 0 0.005 0 0.008 0h0.359c229.596 0.205 415.64 186.376 415.64 416v0zM196.72 604.32l204.84-37.4-214.96-253.040c-16.682 39.62-26.375 85.676-26.375 133.996 0 56.979 13.479 110.81 37.421 158.479l-0.926-2.035zM837.4 582.16c16.683-39.626 26.377-85.688 26.377-134.015 0-56.987-13.479-110.825-37.423-158.501l0.926 2.036-204.84 37.4zM805.080 642.96l-134.88-158.96-111.68 312.88c79.744-10.703 149.541-46.9 202.387-99.987l0.013-0.013c16.066-16.093 30.6-33.726 43.357-52.656l0.803-1.264zM489.72 799.24l70.040-196-326.56 59.48c9.683 12.559 19.467 23.712 29.901 34.221l-0.021-0.021c58.455 58.729 137.635 96.785 225.641 102.27l0.999 0.050zM218.92 253.040l134.88 158.96 111.68-312.72c-103.35 14.145-191.066 71.37-245.762 152.662l-0.798 1.258zM534.28 96.8l-70.040 196 326.4-59.56c-60.356-78.219-151.806-129.905-255.511-136.429l-1.009-0.051z" />
<glyph unicode="&#xe91c;" glyph-name="apple-logo-fill" data-tags="apple-logo-fill" d="M512.92 840c18.399 69.558 80.768 120 154.919 120 0.056 0 0.113 0 0.169 0h3.991c17.673 0 32-14.327 32-32s-14.327-32-32-32v0h-4c-0.003 0-0.005 0-0.008 0-44.491 0-81.912-30.265-92.801-71.33l-0.151-0.67c-3.68-13.92-16.161-24.016-31-24.016-17.682 0-32.016 14.334-32.016 32.016 0 2.843 0.371 5.599 1.066 8.223l-0.050-0.223zM893.2 281.64c-2.484 5.586-6.317 10.189-11.096 13.531l-0.104 0.069c-67.88 46.64-82 126.2-82 184.76 0 70.68 53.88 132.24 86 162.68 6.166 5.845 10.002 14.095 10.002 23.24s-3.837 17.395-9.988 23.227l-0.014 0.013c-50.72 47.88-134.72 78.84-214 78.84-59.639-0.055-115.036-18.171-161.028-49.173l1.028 0.653c-44.755 30.38-99.97 48.502-159.418 48.502-79.551 0-151.523-32.452-203.399-84.839l-0.023-0.023c-52.724-53.794-85.263-127.543-85.263-208.891 0-2.753 0.037-5.497 0.111-8.232l-0.009 0.403c3.401-141.75 64.352-268.628 160.288-358.667l0.272-0.253c28.452-26.926 66.959-43.481 109.333-43.481 0.164 0 0.328 0 0.492 0.001h350.695c0.090 0 0.196 0 0.302 0 45.771 0 87.035 19.296 116.101 50.198l0.077 0.082c26.772 28.748 50.405 61.024 69.982 95.884l1.298 2.516c28.080 51.32 24.48 59.32 20.36 68.96z" />
<glyph unicode="&#xe91d;" glyph-name="apple-podcasts-logo-fill" data-tags="apple-podcasts-logo-fill" d="M512 384c-61.856 0-112 50.144-112 112s50.144 112 112 112c61.856 0 112-50.144 112-112v0c0-61.856-50.144-112-112-112v0zM575 384h-126c-0.063 0-0.137 0-0.212 0-25.866 0-48.889-12.172-63.653-31.101l-0.135-0.18c-10.474-13.24-16.801-30.179-16.801-48.596 0-6.966 0.905-13.721 2.605-20.153l-0.123 0.549 48.72-192c9.274-35.080 40.726-60.52 78.121-60.52 0.084 0 0.168 0 0.252 0h28.467c0.13-0.001 0.285-0.001 0.439-0.001 37.395 0 68.847 25.441 77.994 59.958l0.127 0.563 48.72 192c1.576 5.883 2.481 12.638 2.481 19.604 0 18.417-6.328 35.356-16.927 48.761l0.126-0.165c-14.899 19.109-37.922 31.281-63.789 31.281-0.145 0-0.289 0-0.433-0.001h0.022zM728.96 392c-0.641-2.393-1.009-5.14-1.009-7.974 0-14.834 10.093-27.31 23.786-30.936l0.223-0.050c2.401-0.635 5.156-1 7.997-1 0.001 0 0.002 0 0.003 0v0c14.82 0.011 27.282 10.096 30.91 23.777l0.050 0.223c5.767 21.532 9.080 46.253 9.080 71.747 0 159.058-128.942 288-288 288s-288-128.942-288-288c0-25.495 3.313-50.215 9.531-73.755l-0.451 2.008c3.51-14.151 16.1-24.474 31.102-24.474 17.673 0 32 14.327 32 32 0 3.015-0.417 5.933-1.197 8.699l0.054-0.225c-4.472 16.721-7.040 35.919-7.040 55.717 0 123.712 100.288 224 224 224s224-100.288 224-224c0-19.798-2.568-38.995-7.39-57.278l0.35 1.561zM512 864c-0.014 0-0.031 0-0.047 0-229.75 0-416-186.25-416-416 0-144.069 73.236-271.033 184.509-345.694l1.498-0.946c4.981-3.354 11.116-5.353 17.719-5.353 11.067 0 20.823 5.619 26.569 14.159l0.073 0.114c3.346 4.977 5.341 11.106 5.341 17.7 0 11.079-5.63 20.843-14.186 26.587l-0.115 0.073c-95.416 63.976-157.38 171.404-157.38 293.304 0 194.404 157.596 352 352 352s352-157.596 352-352c0-121.9-61.964-229.327-156.113-292.503l-1.267-0.801c-8.392-5.852-13.815-15.458-13.815-26.331 0-17.673 14.327-32 32-32 6.408 0 12.375 1.883 17.38 5.126l-0.125-0.076c112.771 75.607 186.007 202.571 186.007 346.64 0 229.75-186.25 416-416 416-0.017 0-0.033 0-0.050 0h0.003z" />
<glyph unicode="&#xe91e;" glyph-name="app-store-logo-fill" data-tags="app-store-logo-fill" d="M512 864c-229.75 0-416-186.25-416-416s186.25-416 416-416c229.75 0 416 186.25 416 416v0c-0.25 229.65-186.35 415.75-415.976 416h-0.024zM334.64 239.52l-19.2-32c-5.697-9.367-15.849-15.528-27.44-15.528-17.678 0-32.008 14.331-32.008 32.008 0 6.087 1.699 11.777 4.648 16.621l-0.080-0.141 19.2 32c5.697 9.367 15.849 15.528 27.44 15.528 17.678 0 32.008-14.331 32.008-32.008 0-6.087-1.699-11.777-4.648-16.621l0.080 0.141zM512 352h-288c-17.673 0-32 14.327-32 32s14.327 32 32 32v0h141.88l108.8 181.32-54.12 90.2c-2.87 4.703-4.568 10.393-4.568 16.48 0 17.678 14.331 32.008 32.008 32.008 11.591 0 21.743-6.161 27.36-15.387l0.080-0.141 36.56-60.96 36.56 60.96c5.697 9.367 15.849 15.528 27.44 15.528 17.678 0 32.008-14.331 32.008-32.008 0-6.087-1.699-11.777-4.648-16.621l0.080 0.141-162.92-271.52h71.48c17.673 0 32-14.327 32-32s-14.327-32-32-32v0zM800 352h-103.48l66.92-111.52c2.87-4.703 4.568-10.393 4.568-16.48 0-17.678-14.331-32.008-32.008-32.008-11.591 0-21.743 6.161-27.36 15.387l-0.080 0.141-153.6 256c-2.87 4.703-4.568 10.393-4.568 16.48 0 17.678 14.331 32.008 32.008 32.008 11.591 0 21.743-6.161 27.36-15.387l0.080-0.141 48.28-80.48h141.88c17.673 0 32-14.327 32-32s-14.327-32-32-32v0z" />
<glyph unicode="&#xe91f;" glyph-name="app-window-fill" data-tags="app-window-fill" d="M864 800h-704c-35.346 0-64-28.654-64-64v0-576c0-35.346 28.654-64 64-64v0h704c35.346 0 64 28.654 64 64v0 576c0 35.346-28.654 64-64 64v0zM272 576c-26.51 0-48 21.49-48 48s21.49 48 48 48c26.51 0 48-21.49 48-48v0c0-26.51-21.49-48-48-48v0zM432 576c-26.51 0-48 21.49-48 48s21.49 48 48 48c26.51 0 48-21.49 48-48v0c0-26.51-21.49-48-48-48v0z" />
<glyph unicode="&#xe920;" glyph-name="archive-box-fill" data-tags="archive-box-fill" d="M892.64 686.32l-64 128c-5.373 10.567-16.164 17.68-28.617 17.68-0.008 0-0.016 0-0.024 0h-575.999c-0.007 0-0.015 0-0.023 0-12.453 0-23.245-7.113-28.533-17.498l-0.084-0.182-64-128c-2.115-4.175-3.355-9.102-3.36-14.318v-544.002c0-35.346 28.654-64 64-64v0h640c35.346 0 64 28.654 64 64v0 544c-0.005 5.218-1.245 10.145-3.445 14.505l0.085-0.185zM662.64 329.36l-128-128c-5.792-5.798-13.797-9.385-22.64-9.385s-16.848 3.587-22.64 9.385v0l-128 128c-5.794 5.794-9.378 13.799-9.378 22.64 0 17.683 14.335 32.018 32.018 32.018 8.841 0 16.846-3.584 22.64-9.378l73.36-73.4v242.76c0 17.673 14.327 32 32 32s32-14.327 32-32v0-242.76l73.36 73.4c5.794 5.794 13.799 9.378 22.64 9.378 17.683 0 32.018-14.335 32.018-32.018 0-8.841-3.584-16.846-9.378-22.64v0zM211.76 704l32 64h536.48l32-64z" />
<glyph unicode="&#xe921;" glyph-name="archive-fill" data-tags="archive-fill" d="M896 768h-768c-35.346 0-64-28.654-64-64v0-96c0-35.346 28.654-64 64-64v0-352c0-35.346 28.654-64 64-64v0h640c35.346 0 64 28.654 64 64v0 352c35.346 0 64 28.654 64 64v0 96c0 35.346-28.654 64-64 64v0zM608 384h-192c-17.673 0-32 14.327-32 32s14.327 32 32 32v0h192c17.673 0 32-14.327 32-32s-14.327-32-32-32v0zM896 608h-768v96h768v-96z" />
<glyph unicode="&#xe922;" glyph-name="archive-tray-fill" data-tags="archive-tray-fill" d="M832 832h-640c-35.346 0-64-28.654-64-64v0-640c0-35.346 28.654-64 64-64v0h640c35.346 0 64 28.654 64 64v0 640c0 35.346-28.654 64-64 64v0zM361.36 502.64c5.792 5.798 13.797 9.385 22.64 9.385s16.848-3.587 22.64-9.385l73.36-73.4v242.76c0 17.673 14.327 32 32 32s32-14.327 32-32v0-242.76l73.36 73.4c5.794 5.794 13.799 9.378 22.64 9.378 17.683 0 32.018-14.335 32.018-32.018 0-8.841-3.584-16.846-9.378-22.64l-128-128c-5.792-5.798-13.797-9.385-22.64-9.385s-16.848 3.587-22.64 9.385v0l-128 128c-5.798 5.792-9.385 13.797-9.385 22.64s3.587 16.848 9.385 22.64v0zM832 128h-640v160h114.76l77.24-77.28c11.512-11.564 27.444-18.72 45.047-18.72 0.068 0 0.135 0 0.203 0h165.509c0.060 0 0.131 0 0.203 0 17.607 0 33.539 7.173 45.033 18.756l77.244 77.244h114.76v-160z" />
<glyph unicode="&#xe923;" glyph-name="armchair-fill" data-tags="armchair-fill" d="M160 623.56v48.44c0 88.366 71.634 160 160 160v0h384c88.366 0 160-71.634 160-160v0-48.44c-0.066-8.609-7.061-15.563-15.68-15.563-0.113 0-0.225 0.001-0.337 0.004h0.017c-85.835-0.13-157.278-61.589-172.864-142.896l-0.176-1.104h-325.92c-15.762 82.411-87.205 143.87-173.026 144h-0.014c-0.095-0.002-0.208-0.003-0.32-0.003-8.619 0-15.613 6.954-15.68 15.557v0.006zM848 544c-61.856 0-112-50.144-112-112v0-144c0-17.673-14.327-32-32-32s-32 14.327-32 32v0 112h-320v-112c0-17.673-14.327-32-32-32s-32 14.327-32 32v0 144c0 0.003 0 0.007 0 0.011 0 61.856-50.144 112-112 112s-112-50.144-112-112c0-56.211 41.41-102.75 95.387-110.776l0.613-0.075v-161.16c0-35.346 28.654-64 64-64v0h576c35.346 0 64 28.654 64 64v0 161.16c54.553 8.135 95.922 54.657 95.922 110.84 0 61.829-50.1 111.956-111.918 112h-0.004z" />
<glyph unicode="&#xe924;" glyph-name="arrow-arc-left-fill" data-tags="arrow-arc-left-fill" d="M928 224c0-17.673-14.327-32-32-32s-32 14.327-32 32v0c-0.082 194.343-157.646 351.857-352 351.857-93.874 0-179.166-36.747-242.274-96.642l0.154 0.145 104.76-104.72c5.798-5.792 9.385-13.797 9.385-22.64 0-17.673-14.327-32-32-32-0.009 0-0.018 0-0.027 0h-255.999c-17.673 0-32 14.327-32 32v0 256c0 0.007 0 0.016 0 0.025 0 17.673 14.327 32 32 32 8.843 0 16.848-3.587 22.64-9.385v0l105.92-105.92c74.554 71.353 175.867 115.277 287.44 115.277 229.749 0 415.998-186.248 416-415.997v0z" />
<glyph unicode="&#xe925;" glyph-name="arrow-arc-right-fill" data-tags="arrow-arc-right-fill" d="M960 608v-256c0-17.673-14.327-32-32-32v0h-256c-0.007 0-0.016 0-0.025 0-17.673 0-32 14.327-32 32 0 8.843 3.587 16.848 9.385 22.64l104.76 104.72c-62.954 59.749-148.246 96.497-242.12 96.497-194.354 0-351.918-157.514-352-351.849v-0.008c0-17.673-14.327-32-32-32s-32 14.327-32 32v0c0.002 229.749 186.251 415.997 416 415.997 111.573 0 212.886-43.924 287.593-115.422l-0.153 0.145 105.92 105.92c5.792 5.798 13.797 9.385 22.64 9.385 17.673 0 32-14.327 32-32 0-0.009 0-0.018 0-0.027v0.001z" />
<glyph unicode="&#xe926;" glyph-name="arrow-bend-double-up-left-fill" data-tags="arrow-bend-double-up-left-fill" d="M342.64 374.64c5.794-5.794 9.378-13.799 9.378-22.64 0-17.683-14.335-32.018-32.018-32.018-8.841 0-16.846 3.584-22.64 9.378l-192 192c-5.798 5.792-9.385 13.797-9.385 22.64s3.587 16.848 9.385 22.64v0l192 192c5.794 5.794 13.799 9.378 22.64 9.378 17.683 0 32.018-14.335 32.018-32.018 0-8.841-3.584-16.846-9.378-22.64l-169.4-169.36zM544 574.8v161.2c0 0.007 0 0.016 0 0.025 0 17.673-14.327 32-32 32-8.843 0-16.848-3.587-22.64-9.385v0l-192-192c-5.798-5.792-9.385-13.797-9.385-22.64s3.587-16.848 9.385-22.64v0l192-192c5.792-5.798 13.797-9.385 22.64-9.385 17.673 0 32 14.327 32 32 0 0.009 0 0.018 0 0.027v-0.001 158.52c180.037-17.135 319.773-167.474 320-350.497v-0.023c0-17.673 14.327-32 32-32s32 14.327 32 32v0c-0.283 218.387-168.56 397.382-382.522 414.704l-1.478 0.096z" />
<glyph unicode="&#xe927;" glyph-name="arrow-bend-double-up-right-fill" data-tags="arrow-bend-double-up-right-fill" d="M918.64 521.36l-192-192c-5.794-5.794-13.799-9.378-22.64-9.378-17.683 0-32.018 14.335-32.018 32.018 0 8.841 3.584 16.846 9.378 22.64l169.4 169.36-169.4 169.36c-5.794 5.794-9.378 13.799-9.378 22.64 0 17.683 14.335 32.018 32.018 32.018 8.841 0 16.846-3.584 22.64-9.378v0l192-192c5.798-5.792 9.385-13.797 9.385-22.64s-3.587-16.848-9.385-22.64v0zM726.64 566.64l-192 192c-5.792 5.798-13.797 9.385-22.64 9.385-17.673 0-32-14.327-32-32 0-0.009 0-0.018 0-0.027v0.001-161.2c-215.441-17.419-383.718-196.413-384-414.772v-0.028c0-17.673 14.327-32 32-32s32 14.327 32 32v0c0.227 183.046 139.963 333.385 318.579 350.411l1.421 0.109v-158.52c0-0.007 0-0.016 0-0.025 0-17.673 14.327-32 32-32 8.843 0 16.848 3.587 22.64 9.385v0l192 192c5.798 5.792 9.385 13.797 9.385 22.64s-3.587 16.848-9.385 22.64v0z" />
<glyph unicode="&#xe928;" glyph-name="arrow-bend-down-left-fill" data-tags="arrow-bend-down-left-fill" d="M928 736c-0.25-229.65-186.35-415.75-415.976-416h-160.024v-160c0-0.007 0-0.016 0-0.025 0-17.673-14.327-32-32-32-8.843 0-16.848 3.587-22.64 9.385v0l-192 192c-5.798 5.792-9.385 13.797-9.385 22.64s3.587 16.848 9.385 22.64v0l192 192c5.792 5.798 13.797 9.385 22.64 9.385 17.673 0 32-14.327 32-32 0-0.009 0-0.018 0-0.027v0.001-160h160c194.313 0.228 351.772 157.687 352 351.978v0.022c0 17.673 14.327 32 32 32s32-14.327 32-32v0z" />
<glyph unicode="&#xe929;" glyph-name="arrow-bend-down-right-fill" data-tags="arrow-bend-down-right-fill" d="M918.64 329.36l-192-192c-5.792-5.798-13.797-9.385-22.64-9.385-17.673 0-32 14.327-32 32 0 0.009 0 0.018 0 0.027v-0.001 160h-160c-229.65 0.25-415.75 186.35-416 415.976v0.024c0 17.673 14.327 32 32 32s32-14.327 32-32v0c0.228-194.313 157.687-351.772 351.978-352h160.022v160c0 0.007 0 0.016 0 0.025 0 17.673 14.327 32 32 32 8.843 0 16.848-3.587 22.64-9.385v0l192-192c5.798-5.792 9.385-13.797 9.385-22.64s-3.587-16.848-9.385-22.64v0z" />
<glyph unicode="&#xe92a;" glyph-name="arrow-bend-left-down-fill" data-tags="arrow-bend-left-down-fill" d="M832 832c0-17.673-14.327-32-32-32v0c-194.313-0.228-351.772-157.687-352-351.978v-160.022h160c0.007 0 0.016 0 0.025 0 17.673 0 32-14.327 32-32 0-8.843-3.587-16.848-9.385-22.64v0l-192-192c-5.792-5.798-13.797-9.385-22.64-9.385s-16.848 3.587-22.64 9.385v0l-192 192c-5.798 5.792-9.385 13.797-9.385 22.64 0 17.673 14.327 32 32 32 0.009 0 0.018 0 0.027 0h159.999v160c0.25 229.65 186.35 415.75 415.976 416h0.024c17.673 0 32-14.327 32-32v0z" />
<glyph unicode="&#xe92b;" glyph-name="arrow-bend-left-up-fill" data-tags="arrow-bend-left-up-fill" d="M832 64c0-17.673-14.327-32-32-32v0c-229.65 0.25-415.75 186.35-416 415.976v160.024h-160c-0.007 0-0.016 0-0.025 0-17.673 0-32 14.327-32 32 0 8.843 3.587 16.848 9.385 22.64v0l192 192c5.792 5.798 13.797 9.385 22.64 9.385s16.848-3.587 22.64-9.385v0l192-192c5.798-5.792 9.385-13.797 9.385-22.64 0-17.673-14.327-32-32-32-0.009 0-0.018 0-0.027 0h-159.999v-160c0.228-194.313 157.687-351.772 351.978-352h0.022c17.673 0 32-14.327 32-32v0z" />
<glyph unicode="&#xe92c;" glyph-name="arrow-bend-right-down-fill" data-tags="arrow-bend-right-down-fill" d="M822.64 233.36l-192-192c-5.792-5.798-13.797-9.385-22.64-9.385s-16.848 3.587-22.64 9.385v0l-192 192c-5.798 5.792-9.385 13.797-9.385 22.64 0 17.673 14.327 32 32 32 0.009 0 0.018 0 0.027 0h159.999v160c-0.228 194.313-157.687 351.772-351.978 352h-0.022c-17.673 0-32 14.327-32 32s14.327 32 32 32v0c229.65-0.25 415.75-186.35 416-415.976v-160.024h160c0.007 0 0.016 0 0.025 0 17.673 0 32-14.327 32-32 0-8.843-3.587-16.848-9.385-22.64v0z" />
<glyph unicode="&#xe92d;" glyph-name="arrow-bend-right-up-fill" data-tags="arrow-bend-right-up-fill" d="M829.56 627.76c-4.934-11.696-16.306-19.757-29.56-19.76h-160v-160c-0.25-229.65-186.35-415.75-415.976-416h-0.024c-17.673 0-32 14.327-32 32s14.327 32 32 32v0c194.313 0.228 351.772 157.687 352 351.978v160.022h-160c-0.007 0-0.016 0-0.025 0-17.673 0-32 14.327-32 32 0 8.843 3.587 16.848 9.385 22.64v0l192 192c5.792 5.798 13.797 9.385 22.64 9.385s16.848-3.587 22.64-9.385v0l192-192c5.785-5.79 9.363-13.786 9.363-22.618 0-4.425-0.898-8.639-2.522-12.472l0.079 0.21z" />
<glyph unicode="&#xe92e;" glyph-name="arrow-bend-up-left-fill" data-tags="arrow-bend-up-left-fill" d="M928 160c0-17.673-14.327-32-32-32s-32 14.327-32 32v0c-0.228 194.313-157.687 351.772-351.978 352h-160.022v-160c0-0.007 0-0.016 0-0.025 0-17.673-14.327-32-32-32-8.843 0-16.848 3.587-22.64 9.385v0l-192 192c-5.798 5.792-9.385 13.797-9.385 22.64s3.587 16.848 9.385 22.64v0l192 192c5.792 5.798 13.797 9.385 22.64 9.385 17.673 0 32-14.327 32-32 0-0.009 0-0.018 0-0.027v0.001-160h160c229.65-0.25 415.75-186.35 416-415.976v-0.024z" />
<glyph unicode="&#xe92f;" glyph-name="arrow-bend-up-right-fill" data-tags="arrow-bend-up-right-fill" d="M918.64 521.36l-192-192c-5.792-5.798-13.797-9.385-22.64-9.385-17.673 0-32 14.327-32 32 0 0.009 0 0.018 0 0.027v-0.001 160h-160c-194.313-0.228-351.772-157.687-352-351.978v-0.022c0-17.673-14.327-32-32-32s-32 14.327-32 32v0c0.25 229.65 186.35 415.75 415.976 416h160.024v160c0 0.007 0 0.016 0 0.025 0 17.673 14.327 32 32 32 8.843 0 16.848-3.587 22.64-9.385v0l192-192c5.798-5.792 9.385-13.797 9.385-22.64s-3.587-16.848-9.385-22.64v0z" />
<glyph unicode="&#xe930;" glyph-name="arrow-circle-down-fill" data-tags="arrow-circle-down-fill" d="M512 864c-229.75 0-416-186.25-416-416s186.25-416 416-416c229.75 0 416 186.25 416 416v0c-0.25 229.65-186.35 415.75-415.976 416h-0.024zM662.64 393.36l-128-128c-5.792-5.798-13.797-9.385-22.64-9.385s-16.848 3.587-22.64 9.385v0l-128 128c-5.794 5.794-9.378 13.799-9.378 22.64 0 17.683 14.335 32.018 32.018 32.018 8.841 0 16.846-3.584 22.64-9.378l73.36-73.4v242.76c0 17.673 14.327 32 32 32s32-14.327 32-32v0-242.76l73.36 73.4c5.794 5.794 13.799 9.378 22.64 9.378 17.683 0 32.018-14.335 32.018-32.018 0-8.841-3.584-16.846-9.378-22.64v0z" />
<glyph unicode="&#xe931;" glyph-name="arrow-circle-down-left-fill" data-tags="arrow-circle-down-left-fill" d="M512 864c-229.75 0-416-186.25-416-416s186.25-416 416-416c229.75 0 416 186.25 416 416v0c-0.25 229.65-186.35 415.75-415.976 416h-0.024zM662.64 553.36l-201.4-201.36h114.76c17.673 0 32-14.327 32-32s-14.327-32-32-32v0h-192c-17.673 0-32 14.327-32 32v0 192c0 17.673 14.327 32 32 32s32-14.327 32-32v0-114.76l201.36 201.4c5.794 5.794 13.799 9.378 22.64 9.378 17.683 0 32.018-14.335 32.018-32.018 0-8.841-3.584-16.846-9.378-22.64v0z" />
<glyph unicode="&#xe932;" glyph-name="arrow-circle-down-right-fill" data-tags="arrow-circle-down-right-fill" d="M512 864c-229.75 0-416-186.25-416-416s186.25-416 416-416c229.75 0 416 186.25 416 416v0c-0.25 229.65-186.35 415.75-415.976 416h-0.024zM672 320c0-17.673-14.327-32-32-32v0h-192c-17.673 0-32 14.327-32 32s14.327 32 32 32v0h114.76l-201.4 201.36c-5.794 5.794-9.378 13.799-9.378 22.64 0 17.683 14.335 32.018 32.018 32.018 8.841 0 16.846-3.584 22.64-9.378l201.36-201.4v114.76c0 17.673 14.327 32 32 32s32-14.327 32-32v0z" />
<glyph unicode="&#xe933;" glyph-name="arrow-circle-left-fill" data-tags="arrow-circle-left-fill" d="M512 864c-229.75 0-416-186.25-416-416s186.25-416 416-416c229.75 0 416 186.25 416 416v0c-0.25 229.65-186.35 415.75-415.976 416h-0.024zM672 416h-242.76l73.4-73.36c5.794-5.794 9.378-13.799 9.378-22.64 0-17.683-14.335-32.018-32.018-32.018-8.841 0-16.846 3.584-22.64 9.378l-128 128c-5.798 5.792-9.385 13.797-9.385 22.64s3.587 16.848 9.385 22.64v0l128 128c5.794 5.794 13.799 9.378 22.64 9.378 17.683 0 32.018-14.335 32.018-32.018 0-8.841-3.584-16.846-9.378-22.64l-73.4-73.36h242.76c17.673 0 32-14.327 32-32s-14.327-32-32-32v0z" />
<glyph unicode="&#xe934;" glyph-name="arrow-circle-right-fill" data-tags="arrow-circle-right-fill" d="M512 864c-229.75 0-416-186.25-416-416s186.25-416 416-416c229.75 0 416 186.25 416 416v0c-0.25 229.65-186.35 415.75-415.976 416h-0.024zM694.64 425.36l-128-128c-5.794-5.794-13.799-9.378-22.64-9.378-17.683 0-32.018 14.335-32.018 32.018 0 8.841 3.584 16.846 9.378 22.64l73.4 73.36h-242.76c-17.673 0-32 14.327-32 32s14.327 32 32 32v0h242.76l-73.4 73.36c-5.794 5.794-9.378 13.799-9.378 22.64 0 17.683 14.335 32.018 32.018 32.018 8.841 0 16.846-3.584 22.64-9.378l128-128c5.798-5.792 9.385-13.797 9.385-22.64s-3.587-16.848-9.385-22.64v0z" />
<glyph unicode="&#xe935;" glyph-name="arrow-circle-up-fill" data-tags="arrow-circle-up-fill" d="M512 864c-229.75 0-416-186.25-416-416s186.25-416 416-416c229.75 0 416 186.25 416 416v0c-0.25 229.65-186.35 415.75-415.976 416h-0.024zM662.64 457.36c-5.792-5.798-13.797-9.385-22.64-9.385s-16.848 3.587-22.64 9.385l-73.36 73.4v-242.76c0-17.673-14.327-32-32-32s-32 14.327-32 32v0 242.76l-73.36-73.4c-5.794-5.794-13.799-9.378-22.64-9.378-17.683 0-32.018 14.335-32.018 32.018 0 8.841 3.584 16.846 9.378 22.64l128 128c5.792 5.798 13.797 9.385 22.64 9.385s16.848-3.587 22.64-9.385v0l128-128c5.798-5.792 9.385-13.797 9.385-22.64s-3.587-16.848-9.385-22.64v0z" />
<glyph unicode="&#xe936;" glyph-name="arrow-circle-up-left-fill" data-tags="arrow-circle-up-left-fill" d="M512 864c-229.75 0-416-186.25-416-416s186.25-416 416-416c229.75 0 416 186.25 416 416v0c-0.25 229.65-186.35 415.75-415.976 416h-0.024zM662.64 297.36c-5.792-5.798-13.797-9.385-22.64-9.385s-16.848 3.587-22.64 9.385v0l-201.36 201.4v-114.76c0-17.673-14.327-32-32-32s-32 14.327-32 32v0 192c0 17.673 14.327 32 32 32v0h192c17.673 0 32-14.327 32-32s-14.327-32-32-32v0h-114.76l201.4-201.36c5.798-5.792 9.385-13.797 9.385-22.64s-3.587-16.848-9.385-22.64v0z" />
<glyph unicode="&#xe937;" glyph-name="arrow-circle-up-right-fill" data-tags="arrow-circle-up-right-fill" d="M512 864c-229.75 0-416-186.25-416-416s186.25-416 416-416c229.75 0 416 186.25 416 416v0c-0.25 229.65-186.35 415.75-415.976 416h-0.024zM672 384c0-17.673-14.327-32-32-32s-32 14.327-32 32v0 114.76l-201.36-201.4c-5.794-5.794-13.799-9.378-22.64-9.378-17.683 0-32.018 14.335-32.018 32.018 0 8.841 3.584 16.846 9.378 22.64l201.4 201.36h-114.76c-17.673 0-32 14.327-32 32s14.327 32 32 32v0h192c17.673 0 32-14.327 32-32v0z" />
<glyph unicode="&#xe938;" glyph-name="arrow-clockwise-fill" data-tags="arrow-clockwise-fill" d="M960 736v-192c0-17.673-14.327-32-32-32v0h-192c-0.007 0-0.016 0-0.025 0-17.673 0-32 14.327-32 32 0 8.843 3.587 16.848 9.385 22.64v0l68 68-42.2 38.6-1 0.96c-57.905 57.883-137.887 93.683-226.231 93.683-176.731 0-320-143.269-320-320s143.269-320 320-320c85.071 0 162.388 33.196 219.705 87.341l-0.154-0.144c5.723 5.422 13.472 8.756 22 8.756 17.682 0 32.016-14.334 32.016-32.016 0-9.154-3.842-17.411-10.002-23.246l-0.015-0.014c-68.264-64.744-160.728-104.561-262.491-104.561-0.348 0-0.695 0-1.043 0.001h-5.226c-209.803 2.965-378.741 173.736-378.741 383.964 0 212.077 171.923 384 384 384 105.786 0 201.582-42.776 271.032-111.975l-0.011 0.011 43.72-40 78.64 78.8c5.792 5.799 13.797 9.386 22.641 9.386 17.673 0 32-14.327 32-32 0-0.065 0-0.131-0.001-0.196v0.010z" />
<glyph unicode="&#xe939;" glyph-name="arrow-counter-clockwise-fill" data-tags="arrow-counter-clockwise-fill" d="M896 448c0-0.010 0-0.022 0-0.035 0-210.263-168.993-381.055-378.566-383.962l-0.274-0.003h-5.16c-0.283-0.001-0.617-0.001-0.952-0.001-101.855 0-194.388 39.914-262.811 104.954l0.162-0.153c-6.174 5.849-10.016 14.106-10.016 23.26 0 17.682 14.334 32.016 32.016 32.016 8.528 0 16.277-3.334 22.015-8.77l-0.015 0.014c57.164-54.001 134.481-87.197 219.551-87.197 176.731 0 320 143.269 320 320s-143.269 320-320 320c-88.344 0-168.327-35.8-226.232-93.684l0.001 0.001c-0.327-0.353-0.666-0.68-1.024-0.986l-0.016-0.014-42.16-38.6 68-68c5.919-5.811 9.587-13.897 9.587-22.84 0-17.673-14.327-32-32-32-0.038 0-0.075 0-0.113 0h-191.994c-17.673 0-32 14.327-32 32v0 192c0 0.055-0.001 0.12-0.001 0.186 0 17.673 14.327 32 32 32 8.843 0 16.848-3.587 22.64-9.385v0l78.6-78.8 43.76 40c69.437 69.175 165.224 111.943 271 111.943 212.057 0 383.968-171.89 384-383.94v-0.003z" />
<glyph unicode="&#xe93a;" glyph-name="arrow-down-fill" data-tags="arrow-down-fill" d="M822.64 361.36l-288-288c-5.792-5.798-13.797-9.385-22.64-9.385s-16.848 3.587-22.64 9.385v0l-288 288c-5.798 5.792-9.385 13.797-9.385 22.64 0 17.673 14.327 32 32 32 0.009 0 0.018 0 0.027 0h255.999v384c0 17.673 14.327 32 32 32s32-14.327 32-32v0-384h256c0.007 0 0.016 0 0.025 0 17.673 0 32-14.327 32-32 0-8.843-3.587-16.848-9.385-22.64v0z" />
<glyph unicode="&#xe93b;" glyph-name="arrow-down-left-fill" data-tags="arrow-down-left-fill" d="M790.64 681.36l-281.4-281.36 185.4-185.36c5.798-5.792 9.385-13.797 9.385-22.64 0-17.673-14.327-32-32-32-0.009 0-0.018 0-0.027 0h-415.999c-17.673 0-32 14.327-32 32v0 416c0 0.007 0 0.016 0 0.025 0 17.673 14.327 32 32 32 8.843 0 16.848-3.587 22.64-9.385v0l185.36-185.4 281.36 281.4c5.794 5.794 13.799 9.378 22.64 9.378 17.683 0 32.018-14.335 32.018-32.018 0-8.841-3.584-16.846-9.378-22.64v0z" />
<glyph unicode="&#xe93c;" glyph-name="arrow-down-right-fill" data-tags="arrow-down-right-fill" d="M800 608v-416c0-17.673-14.327-32-32-32v0h-416c-0.007 0-0.016 0-0.025 0-17.673 0-32 14.327-32 32 0 8.843 3.587 16.848 9.385 22.64v0l185.4 185.36-281.4 281.36c-5.794 5.794-9.378 13.799-9.378 22.64 0 17.683 14.335 32.018 32.018 32.018 8.841 0 16.846-3.584 22.64-9.378l281.36-281.4 185.36 185.4c5.792 5.798 13.797 9.385 22.64 9.385 17.673 0 32-14.327 32-32 0-0.009 0-0.018 0-0.027v0.001z" />
<glyph unicode="&#xe93d;" glyph-name="arrow-elbow-down-left-fill" data-tags="arrow-elbow-down-left-fill" d="M800 832v-576c0-17.673-14.327-32-32-32v0h-352v-160c0-0.007 0-0.016 0-0.025 0-17.673-14.327-32-32-32-8.843 0-16.848 3.587-22.64 9.385v0l-192 192c-5.798 5.792-9.385 13.797-9.385 22.64s3.587 16.848 9.385 22.64v0l192 192c5.792 5.798 13.797 9.385 22.64 9.385 17.673 0 32-14.327 32-32 0-0.009 0-0.018 0-0.027v0.001-160h320v544c0 17.673 14.327 32 32 32s32-14.327 32-32v0z" />
<glyph unicode="&#xe93e;" glyph-name="arrow-elbow-down-right-fill" data-tags="arrow-elbow-down-right-fill" d="M854.64 233.36l-192-192c-5.792-5.798-13.797-9.385-22.64-9.385-17.673 0-32 14.327-32 32 0 0.009 0 0.018 0 0.027v-0.001 160h-352c-17.673 0-32 14.327-32 32v0 576c0 17.673 14.327 32 32 32s32-14.327 32-32v0-544h320v160c0 0.007 0 0.016 0 0.025 0 17.673 14.327 32 32 32 8.843 0 16.848-3.587 22.64-9.385v0l192-192c5.798-5.792 9.385-13.797 9.385-22.64s-3.587-16.848-9.385-22.64v0z" />
<glyph unicode="&#xe93f;" glyph-name="arrow-elbow-left-down-fill" data-tags="arrow-elbow-left-down-fill" d="M928 704c0-17.673-14.327-32-32-32v0h-544v-320h160c0.007 0 0.016 0 0.025 0 17.673 0 32-14.327 32-32 0-8.843-3.587-16.848-9.385-22.64v0l-192-192c-5.792-5.798-13.797-9.385-22.64-9.385s-16.848 3.587-22.64 9.385v0l-192 192c-5.798 5.792-9.385 13.797-9.385 22.64 0 17.673 14.327 32 32 32 0.009 0 0.018 0 0.027 0h159.999v352c0 17.673 14.327 32 32 32v0h576c17.673 0 32-14.327 32-32v0z" />
<glyph unicode="&#xe940;" glyph-name="arrow-elbow-left-fill" data-tags="arrow-elbow-left-fill" d="M950.64 553.36l-384-384c-5.792-5.798-13.797-9.385-22.64-9.385s-16.848 3.587-22.64 9.385v0l-281.36 281.4-121.36-121.4c-5.792-5.798-13.797-9.385-22.64-9.385-17.673 0-32 14.327-32 32 0 0.009 0 0.018 0 0.027v-0.001 288c0 17.673 14.327 32 32 32v0h288c0.007 0 0.016 0 0.025 0 17.673 0 32-14.327 32-32 0-8.843-3.587-16.848-9.385-22.64l-121.4-121.36 258.76-258.76 361.36 361.4c5.794 5.794 13.799 9.378 22.64 9.378 17.683 0 32.018-14.335 32.018-32.018 0-8.841-3.584-16.846-9.378-22.64v0z" />
<glyph unicode="&#xe941;" glyph-name="arrow-elbow-left-up-fill" data-tags="arrow-elbow-left-up-fill" d="M928 192c0-17.673-14.327-32-32-32v0h-576c-17.673 0-32 14.327-32 32v0 352h-160c-0.007 0-0.016 0-0.025 0-17.673 0-32 14.327-32 32 0 8.843 3.587 16.848 9.385 22.64v0l192 192c5.792 5.798 13.797 9.385 22.64 9.385s16.848-3.587 22.64-9.385v0l192-192c5.798-5.792 9.385-13.797 9.385-22.64 0-17.673-14.327-32-32-32-0.009 0-0.018 0-0.027 0h-159.999v-320h544c17.673 0 32-14.327 32-32v0z" />
<glyph unicode="&#xe942;" glyph-name="arrow-elbow-right-down-fill" data-tags="arrow-elbow-right-down-fill" d="M918.64 297.36l-192-192c-5.792-5.798-13.797-9.385-22.64-9.385s-16.848 3.587-22.64 9.385v0l-192 192c-5.798 5.792-9.385 13.797-9.385 22.64 0 17.673 14.327 32 32 32 0.009 0 0.018 0 0.027 0h159.999v320h-544c-17.673 0-32 14.327-32 32s14.327 32 32 32v0h576c17.673 0 32-14.327 32-32v0-352h160c0.007 0 0.016 0 0.025 0 17.673 0 32-14.327 32-32 0-8.843-3.587-16.848-9.385-22.64v0z" />
<glyph unicode="&#xe943;" glyph-name="arrow-elbow-right-fill" data-tags="arrow-elbow-right-fill" d="M960 640v-288c0-0.007 0-0.016 0-0.025 0-17.673-14.327-32-32-32-8.843 0-16.848 3.587-22.64 9.385l-121.36 121.4-281.36-281.4c-5.792-5.798-13.797-9.385-22.64-9.385s-16.848 3.587-22.64 9.385v0l-384 384c-5.794 5.794-9.378 13.799-9.378 22.64 0 17.683 14.335 32.018 32.018 32.018 8.841 0 16.846-3.584 22.64-9.378l361.36-361.4 258.76 258.76-121.4 121.36c-5.798 5.792-9.385 13.797-9.385 22.64 0 17.673 14.327 32 32 32 0.009 0 0.018 0 0.027 0h287.999c17.673 0 32-14.327 32-32v0z" />
<glyph unicode="&#xe944;" glyph-name="arrow-elbow-right-up-fill" data-tags="arrow-elbow-right-up-fill" d="M925.56 563.76c-4.934-11.696-16.306-19.757-29.56-19.76h-160v-352c0-17.673-14.327-32-32-32v0h-576c-17.673 0-32 14.327-32 32s14.327 32 32 32v0h544v320h-160c-0.007 0-0.016 0-0.025 0-17.673 0-32 14.327-32 32 0 8.843 3.587 16.848 9.385 22.64v0l192 192c5.792 5.798 13.797 9.385 22.64 9.385s16.848-3.587 22.64-9.385v0l192-192c5.785-5.79 9.363-13.786 9.363-22.618 0-4.425-0.898-8.639-2.522-12.472l0.079 0.21z" />
<glyph unicode="&#xe945;" glyph-name="arrow-elbow-up-left-fill" data-tags="arrow-elbow-up-left-fill" d="M800 640v-576c0-17.673-14.327-32-32-32s-32 14.327-32 32v0 544h-320v-160c0-0.007 0-0.016 0-0.025 0-17.673-14.327-32-32-32-8.843 0-16.848 3.587-22.64 9.385v0l-192 192c-5.798 5.792-9.385 13.797-9.385 22.64s3.587 16.848 9.385 22.64v0l192 192c5.792 5.798 13.797 9.385 22.64 9.385 17.673 0 32-14.327 32-32 0-0.009 0-0.018 0-0.027v0.001-160h352c17.673 0 32-14.327 32-32v0z" />
<glyph unicode="&#xe946;" glyph-name="arrow-elbow-up-right-fill" data-tags="arrow-elbow-up-right-fill" d="M854.64 617.36l-192-192c-5.792-5.798-13.797-9.385-22.64-9.385-17.673 0-32 14.327-32 32 0 0.009 0 0.018 0 0.027v-0.001 160h-320v-544c0-17.673-14.327-32-32-32s-32 14.327-32 32v0 576c0 17.673 14.327 32 32 32v0h352v160c0 0.007 0 0.016 0 0.025 0 17.673 14.327 32 32 32 8.843 0 16.848-3.587 22.64-9.385v0l192-192c5.798-5.792 9.385-13.797 9.385-22.64s-3.587-16.848-9.385-22.64v0z" />
<glyph unicode="&#xe947;" glyph-name="arrow-fat-down-fill" data-tags="arrow-fat-down-fill" d="M918.64 393.36l-384-384c-5.792-5.798-13.797-9.385-22.64-9.385s-16.848 3.587-22.64 9.385v0l-384 384c-5.798 5.792-9.385 13.797-9.385 22.64 0 17.673 14.327 32 32 32 0.009 0 0.018 0 0.027 0h159.999v320c0 35.346 28.654 64 64 64v0h320c35.346 0 64-28.654 64-64v0-320h160c0.007 0 0.016 0 0.025 0 17.673 0 32-14.327 32-32 0-8.843-3.587-16.848-9.385-22.64v0z" />
<glyph unicode="&#xe948;" glyph-name="arrow-fat-left-fill" data-tags="arrow-fat-left-fill" d="M896 608v-320c0-35.346-28.654-64-64-64v0h-320v-160c0-0.007 0-0.016 0-0.025 0-17.673-14.327-32-32-32-8.843 0-16.848 3.587-22.64 9.385v0l-384 384c-5.798 5.792-9.385 13.797-9.385 22.64s3.587 16.848 9.385 22.64v0l384 384c5.792 5.798 13.797 9.385 22.64 9.385 17.673 0 32-14.327 32-32 0-0.009 0-0.018 0-0.027v0.001-160h320c35.346 0 64-28.654 64-64v0z" />
<glyph unicode="&#xe949;" glyph-name="arrow-fat-line-down-fill" data-tags="arrow-fat-line-down-fill" d="M288 800c0 17.673 14.327 32 32 32v0h384c17.673 0 32-14.327 32-32s-14.327-32-32-32v0h-384c-17.673 0-32 14.327-32 32v0zM925.56 428.24c-4.934 11.696-16.306 19.757-29.56 19.76h-160v224c0 17.673-14.327 32-32 32v0h-384c-17.673 0-32-14.327-32-32v0-224h-160c-0.007 0-0.016 0-0.025 0-17.673 0-32-14.327-32-32 0-8.843 3.587-16.848 9.385-22.64v0l384-384c5.792-5.798 13.797-9.385 22.64-9.385s16.848 3.587 22.64 9.385v0l384 384c5.785 5.79 9.363 13.786 9.363 22.618 0 4.425-0.898 8.639-2.522 12.472l0.079-0.21z" />
<glyph unicode="&#xe94a;" glyph-name="arrow-fat-line-left-fill" data-tags="arrow-fat-line-left-fill" d="M768 640v-384c0-17.673-14.327-32-32-32v0h-224v-160c0-0.007 0-0.016 0-0.025 0-17.673-14.327-32-32-32-8.843 0-16.848 3.587-22.64 9.385v0l-384 384c-5.798 5.792-9.385 13.797-9.385 22.64s3.587 16.848 9.385 22.64v0l384 384c5.792 5.798 13.797 9.385 22.64 9.385 17.673 0 32-14.327 32-32 0-0.009 0-0.018 0-0.027v0.001-160h224c17.673 0 32-14.327 32-32v0zM864 672c-17.673 0-32-14.327-32-32v0-384c0-17.673 14.327-32 32-32s32 14.327 32 32v0 384c0 17.673-14.327 32-32 32v0z" />
<glyph unicode="&#xe94b;" glyph-name="arrow-fat-line-right-fill" data-tags="arrow-fat-line-right-fill" d="M192 640v-384c0-17.673-14.327-32-32-32s-32 14.327-32 32v0 384c0 17.673 14.327 32 32 32s32-14.327 32-32v0zM950.64 470.64l-384 384c-5.792 5.798-13.797 9.385-22.64 9.385-17.673 0-32-14.327-32-32 0-0.009 0-0.018 0-0.027v0.001-160h-224c-17.673 0-32-14.327-32-32v0-384c0-17.673 14.327-32 32-32v0h224v-160c0-0.007 0-0.016 0-0.025 0-17.673 14.327-32 32-32 8.843 0 16.848 3.587 22.64 9.385v0l384 384c5.798 5.792 9.385 13.797 9.385 22.64s-3.587 16.848-9.385 22.64v0z" />
<glyph unicode="&#xe94c;" glyph-name="arrow-fat-lines-down-fill" data-tags="arrow-fat-lines-down-fill" d="M288 800c0 17.673 14.327 32 32 32v0h384c17.673 0 32-14.327 32-32s-14.327-32-32-32v0h-384c-17.673 0-32 14.327-32 32v0zM925.56 428.24c-4.934 11.696-16.306 19.757-29.56 19.76h-160v96c0 17.673-14.327 32-32 32v0h-384c-17.673 0-32-14.327-32-32v0-96h-160c-0.007 0-0.016 0-0.025 0-17.673 0-32-14.327-32-32 0-8.843 3.587-16.848 9.385-22.64v0l384-384c5.792-5.798 13.797-9.385 22.64-9.385s16.848 3.587 22.64 9.385v0l384 384c5.785 5.79 9.363 13.786 9.363 22.618 0 4.425-0.898 8.639-2.522 12.472l0.079-0.21zM320 640h384c17.673 0 32 14.327 32 32s-14.327 32-32 32v0h-384c-17.673 0-32-14.327-32-32s14.327-32 32-32v0z" />
<glyph unicode="&#xe94d;" glyph-name="arrow-fat-lines-left-fill" data-tags="arrow-fat-lines-left-fill" d="M640 640v-384c0-17.673-14.327-32-32-32v0h-96v-160c0-0.007 0-0.016 0-0.025 0-17.673-14.327-32-32-32-8.843 0-16.848 3.587-22.64 9.385v0l-384 384c-5.798 5.792-9.385 13.797-9.385 22.64s3.587 16.848 9.385 22.64v0l384 384c5.792 5.798 13.797 9.385 22.64 9.385 17.673 0 32-14.327 32-32 0-0.009 0-0.018 0-0.027v0.001-160h96c17.673 0 32-14.327 32-32v0zM736 672c-17.673 0-32-14.327-32-32v0-384c0-17.673 14.327-32 32-32s32 14.327 32 32v0 384c0 17.673-14.327 32-32 32v0zM864 672c-17.673 0-32-14.327-32-32v0-384c0-17.673 14.327-32 32-32s32 14.327 32 32v0 384c0 17.673-14.327 32-32 32v0z" />
<glyph unicode="&#xe94e;" glyph-name="arrow-fat-lines-right-fill" data-tags="arrow-fat-lines-right-fill" d="M192 640v-384c0-17.673-14.327-32-32-32s-32 14.327-32 32v0 384c0 17.673 14.327 32 32 32s32-14.327 32-32v0zM288 672c-17.673 0-32-14.327-32-32v0-384c0-17.673 14.327-32 32-32s32 14.327 32 32v0 384c0 17.673-14.327 32-32 32v0zM950.64 470.64l-384 384c-5.792 5.798-13.797 9.385-22.64 9.385-17.673 0-32-14.327-32-32 0-0.009 0-0.018 0-0.027v0.001-160h-96c-17.673 0-32-14.327-32-32v0-384c0-17.673 14.327-32 32-32v0h96v-160c0-0.007 0-0.016 0-0.025 0-17.673 14.327-32 32-32 8.843 0 16.848 3.587 22.64 9.385v0l384 384c5.798 5.792 9.385 13.797 9.385 22.64s-3.587 16.848-9.385 22.64v0z" />
<glyph unicode="&#xe94f;" glyph-name="arrow-fat-lines-up-fill" data-tags="arrow-fat-lines-up-fill" d="M736 96c0-17.673-14.327-32-32-32v0h-384c-17.673 0-32 14.327-32 32s14.327 32 32 32v0h384c17.673 0 32-14.327 32-32v0zM918.64 502.64l-384 384c-5.792 5.798-13.797 9.385-22.64 9.385s-16.848-3.587-22.64-9.385v0l-384-384c-5.798-5.792-9.385-13.797-9.385-22.64 0-17.673 14.327-32 32-32 0.009 0 0.018 0 0.027 0h159.999v-96c0-17.673 14.327-32 32-32v0h384c17.673 0 32 14.327 32 32v0 96h160c0.007 0 0.016 0 0.025 0 17.673 0 32 14.327 32 32 0 8.843-3.587 16.848-9.385 22.64v0zM704 256h-384c-17.673 0-32-14.327-32-32s14.327-32 32-32v0h384c17.673 0 32 14.327 32 32s-14.327 32-32 32v0z" />
<glyph unicode="&#xe950;" glyph-name="arrow-fat-line-up-fill" data-tags="arrow-fat-line-up-fill" d="M736 96c0-17.673-14.327-32-32-32v0h-384c-17.673 0-32 14.327-32 32s14.327 32 32 32v0h384c17.673 0 32-14.327 32-32v0zM918.64 502.64l-384 384c-5.792 5.798-13.797 9.385-22.64 9.385s-16.848-3.587-22.64-9.385v0l-384-384c-5.798-5.792-9.385-13.797-9.385-22.64 0-17.673 14.327-32 32-32 0.009 0 0.018 0 0.027 0h159.999v-224c0-17.673 14.327-32 32-32v0h384c17.673 0 32 14.327 32 32v0 224h160c0.007 0 0.016 0 0.025 0 17.673 0 32 14.327 32 32 0 8.843-3.587 16.848-9.385 22.64v0z" />
<glyph unicode="&#xe951;" glyph-name="arrow-fat-right-fill" data-tags="arrow-fat-right-fill" d="M950.64 425.36l-384-384c-5.792-5.798-13.797-9.385-22.64-9.385-17.673 0-32 14.327-32 32 0 0.009 0 0.018 0 0.027v-0.001 160h-320c-35.346 0-64 28.654-64 64v0 320c0 35.346 28.654 64 64 64v0h320v160c0 0.007 0 0.016 0 0.025 0 17.673 14.327 32 32 32 8.843 0 16.848-3.587 22.64-9.385v0l384-384c5.798-5.792 9.385-13.797 9.385-22.64s-3.587-16.848-9.385-22.64v0z" />
<glyph unicode="&#xe952;" glyph-name="arrow-fat-up-fill" data-tags="arrow-fat-up-fill" d="M925.56 467.76c-4.934-11.696-16.306-19.757-29.56-19.76h-160v-320c0-35.346-28.654-64-64-64v0h-320c-35.346 0-64 28.654-64 64v0 320h-160c-0.007 0-0.016 0-0.025 0-17.673 0-32 14.327-32 32 0 8.843 3.587 16.848 9.385 22.64v0l384 384c5.792 5.798 13.797 9.385 22.64 9.385s16.848-3.587 22.64-9.385v0l384-384c5.785-5.79 9.363-13.786 9.363-22.618 0-4.425-0.898-8.639-2.522-12.472l0.079 0.21z" />
<glyph unicode="&#xe953;" glyph-name="arrow-left-fill" data-tags="arrow-left-fill" d="M896 448c0-17.673-14.327-32-32-32v0h-384v-256c0-0.007 0-0.016 0-0.025 0-17.673-14.327-32-32-32-8.843 0-16.848 3.587-22.64 9.385v0l-288 288c-5.798 5.792-9.385 13.797-9.385 22.64s3.587 16.848 9.385 22.64v0l288 288c5.792 5.798 13.797 9.385 22.64 9.385 17.673 0 32-14.327 32-32 0-0.009 0-0.018 0-0.027v0.001-256h384c17.673 0 32-14.327 32-32v0z" />
<glyph unicode="&#xe954;" glyph-name="arrow-line-down-fill" data-tags="arrow-line-down-fill" d="M201.36 489.36c-5.798 5.792-9.385 13.797-9.385 22.64 0 17.673 14.327 32 32 32 0.009 0 0.018 0 0.027 0h255.999v288c0 17.673 14.327 32 32 32s32-14.327 32-32v0-288h256c0.007 0 0.016 0 0.025 0 17.673 0 32-14.327 32-32 0-8.843-3.587-16.848-9.385-22.64v0l-288-288c-5.792-5.798-13.797-9.385-22.64-9.385s-16.848 3.587-22.64 9.385v0zM864 128h-704c-17.673 0-32-14.327-32-32s14.327-32 32-32v0h704c17.673 0 32 14.327 32 32s-14.327 32-32 32v0z" />
<glyph unicode="&#xe955;" glyph-name="arrow-line-down-left-fill" data-tags="arrow-line-down-left-fill" d="M726.64 630.64c5.798-5.792 9.385-13.797 9.385-22.64s-3.587-16.848-9.385-22.64v0l-233.4-233.36 169.4-169.36c5.798-5.792 9.385-13.797 9.385-22.64 0-17.673-14.327-32-32-32-0.009 0-0.018 0-0.027 0h-383.999c-17.673 0-32 14.327-32 32v0 384c0 0.007 0 0.016 0 0.025 0 17.673 14.327 32 32 32 8.843 0 16.848-3.587 22.64-9.385v0l169.36-169.4 233.36 233.4c5.792 5.798 13.797 9.385 22.64 9.385s16.848-3.587 22.64-9.385v0zM864 832h-704c-17.673 0-32-14.327-32-32s14.327-32 32-32v0h704c17.673 0 32 14.327 32 32s-14.327 32-32 32v0z" />
<glyph unicode="&#xe956;" glyph-name="arrow-line-down-right-fill" data-tags="arrow-line-down-right-fill" d="M896 800c0-17.673-14.327-32-32-32v0h-704c-17.673 0-32 14.327-32 32s14.327 32 32 32v0h704c17.673 0 32-14.327 32-32v0zM780.24 573.56c-3.623 1.545-7.838 2.443-12.262 2.443-8.832 0-16.828-3.578-22.618-9.363v0l-169.36-169.4-233.36 233.4c-5.794 5.794-13.799 9.378-22.64 9.378-17.683 0-32.018-14.335-32.018-32.018 0-8.841 3.584-16.846 9.378-22.64l233.4-233.36-169.4-169.36c-5.798-5.792-9.385-13.797-9.385-22.64 0-17.673 14.327-32 32-32 0.009 0 0.018 0 0.027 0h383.999c17.673 0 32 14.327 32 32v0 384c-0.003 13.254-8.064 24.626-19.55 29.481l-0.21 0.079z" />
<glyph unicode="&#xe957;" glyph-name="arrow-line-left-fill" data-tags="arrow-line-left-fill" d="M192 800v-704c0-17.673-14.327-32-32-32s-32 14.327-32 32v0 704c0 17.673 14.327 32 32 32s32-14.327 32-32v0zM896 480h-288v256c0 0.007 0 0.016 0 0.025 0 17.673-14.327 32-32 32-8.843 0-16.848-3.587-22.64-9.385v0l-288-288c-5.798-5.792-9.385-13.797-9.385-22.64s3.587-16.848 9.385-22.64v0l288-288c5.792-5.798 13.797-9.385 22.64-9.385 17.673 0 32 14.327 32 32 0 0.009 0 0.018 0 0.027v-0.001 256h288c17.673 0 32 14.327 32 32s-14.327 32-32 32v0z" />
<glyph unicode="&#xe958;" glyph-name="arrow-line-right-fill" data-tags="arrow-line-right-fill" d="M896 800v-704c0-17.673-14.327-32-32-32s-32 14.327-32 32v0 704c0 17.673 14.327 32 32 32s32-14.327 32-32v0zM470.64 758.64c-5.792 5.798-13.797 9.385-22.64 9.385-17.673 0-32-14.327-32-32 0-0.009 0-0.018 0-0.027v0.001-256h-288c-17.673 0-32-14.327-32-32s14.327-32 32-32v0h288v-256c0-0.007 0-0.016 0-0.025 0-17.673 14.327-32 32-32 8.843 0 16.848 3.587 22.64 9.385v0l288 288c5.798 5.792 9.385 13.797 9.385 22.64s-3.587 16.848-9.385 22.64v0z" />
<glyph unicode="&#xe959;" glyph-name="arrow-line-up-fill" data-tags="arrow-line-up-fill" d="M822.64 406.64c5.798-5.792 9.385-13.797 9.385-22.64 0-17.673-14.327-32-32-32-0.009 0-0.018 0-0.027 0h-255.999v-288c0-17.673-14.327-32-32-32s-32 14.327-32 32v0 288h-256c-0.007 0-0.016 0-0.025 0-17.673 0-32 14.327-32 32 0 8.843 3.587 16.848 9.385 22.64v0l288 288c5.792 5.798 13.797 9.385 22.64 9.385s16.848-3.587 22.64-9.385v0zM864 832h-704c-17.673 0-32-14.327-32-32s14.327-32 32-32v0h704c17.673 0 32 14.327 32 32s-14.327 32-32 32v0z" />
<glyph unicode="&#xe95a;" glyph-name="arrow-line-up-left-fill" data-tags="arrow-line-up-left-fill" d="M224 352v384c0 17.673 14.327 32 32 32v0h384c0.007 0 0.016 0 0.025 0 17.673 0 32-14.327 32-32 0-8.843-3.587-16.848-9.385-22.64v0l-169.4-169.36 233.4-233.36c5.794-5.794 9.378-13.799 9.378-22.64 0-17.683-14.335-32.018-32.018-32.018-8.841 0-16.846 3.584-22.64 9.378l-233.36 233.4-169.36-169.4c-5.792-5.798-13.797-9.385-22.64-9.385-17.673 0-32 14.327-32 32 0 0.009 0 0.018 0 0.027v-0.001zM864 128h-704c-17.673 0-32-14.327-32-32s14.327-32 32-32v0h704c17.673 0 32 14.327 32 32s-14.327 32-32 32v0z" />
<glyph unicode="&#xe95b;" glyph-name="arrow-line-up-right-fill" data-tags="arrow-line-up-right-fill" d="M297.36 265.36c-5.798 5.792-9.385 13.797-9.385 22.64s3.587 16.848 9.385 22.64v0l233.4 233.36-169.4 169.36c-5.798 5.792-9.385 13.797-9.385 22.64 0 17.673 14.327 32 32 32 0.009 0 0.018 0 0.027 0h383.999c17.673 0 32-14.327 32-32v0-384c0-0.007 0-0.016 0-0.025 0-17.673-14.327-32-32-32-8.843 0-16.848 3.587-22.64 9.385v0l-169.36 169.4-233.36-233.4c-5.792-5.798-13.797-9.385-22.64-9.385s-16.848 3.587-22.64 9.385v0zM864 128h-704c-17.673 0-32-14.327-32-32s14.327-32 32-32v0h704c17.673 0 32 14.327 32 32s-14.327 32-32 32v0z" />
<glyph unicode="&#xe95c;" glyph-name="arrow-right-fill" data-tags="arrow-right-fill" d="M886.64 425.36l-288-288c-5.792-5.798-13.797-9.385-22.64-9.385-17.673 0-32 14.327-32 32 0 0.009 0 0.018 0 0.027v-0.001 256h-384c-17.673 0-32 14.327-32 32s14.327 32 32 32v0h384v256c0 0.007 0 0.016 0 0.025 0 17.673 14.327 32 32 32 8.843 0 16.848-3.587 22.64-9.385v0l288-288c5.798-5.792 9.385-13.797 9.385-22.64s-3.587-16.848-9.385-22.64v0z" />
<glyph unicode="&#xe95d;" glyph-name="arrows-clockwise-fill" data-tags="arrows-clockwise-fill" d="M790.64 214.64c5.798-5.792 9.385-13.797 9.385-22.64s-3.587-16.848-9.385-22.64v0c-4.32-4.28-107.36-105.36-278.64-105.36-93.44 0-184.52 36.4-265.12 105.64l-64.24-64.28c-5.792-5.798-13.797-9.385-22.64-9.385-17.673 0-32 14.327-32 32 0 0.009 0 0.018 0 0.027v-0.001 192c0 17.673 14.327 32 32 32v0h192c0.007 0 0.016 0 0.025 0 17.673 0 32-14.327 32-32 0-8.843-3.587-16.848-9.385-22.64v0l-82.32-82.32c52-43.64 127-87.040 219.68-87.040 145.080 0 232.52 85.76 233.36 86.64 5.792 5.798 13.797 9.385 22.64 9.385s16.848-3.587 22.64-9.385v0zM876.24 797.56c-3.623 1.545-7.838 2.443-12.262 2.443-8.832 0-16.828-3.578-22.618-9.363v0l-64.24-64.28c-80.6 69.24-171.68 105.64-265.12 105.64-171.28 0-274.32-101.080-278.64-105.36-5.794-5.794-9.378-13.799-9.378-22.64 0-17.683 14.335-32.018 32.018-32.018 8.841 0 16.846 3.584 22.64 9.378v0c0.84 0.88 88.28 86.64 233.36 86.64 92.68 0 167.68-43.4 219.68-87.040l-82.32-82.32c-5.798-5.792-9.385-13.797-9.385-22.64 0-17.673 14.327-32 32-32 0.009 0 0.018 0 0.027 0h191.999c17.673 0 32 14.327 32 32v0 192c-0.003 13.254-8.064 24.626-19.55 29.481l-0.21 0.079z" />
<glyph unicode="&#xe95e;" glyph-name="arrows-counter-clockwise-fill" data-tags="arrows-counter-clockwise-fill" d="M896 320v-192c0-0.007 0-0.016 0-0.025 0-17.673-14.327-32-32-32-8.843 0-16.848 3.587-22.64 9.385l-64.24 64.28c-80.6-69.24-171.68-105.64-265.12-105.64-171.28 0-274.32 101.080-278.64 105.36-5.809 5.794-9.404 13.808-9.404 22.66 0 17.675 14.329 32.004 32.004 32.004 8.823 0 16.811-3.57 22.601-9.344l-0.001 0.001c1.44-1.4 90.080-86.68 233.44-86.68 92.68 0 167.68 43.4 219.68 87.040l-82.32 82.32c-5.798 5.792-9.385 13.797-9.385 22.64 0 17.673 14.327 32 32 32 0.009 0 0.018 0 0.027 0h191.999c17.673 0 32-14.327 32-32v0zM381.56 563.76c1.545 3.623 2.443 7.838 2.443 12.262 0 8.832-3.578 16.828-9.363 22.618l-82.32 82.32c52 43.64 127 87.040 219.68 87.040 143.8 0 232.52-85.76 233.44-86.72 5.79-5.77 13.778-9.338 22.6-9.338 17.683 0 32.018 14.335 32.018 32.018 0 8.861-3.6 16.882-9.417 22.679l-0.001 0.001c-4.32 4.28-107.36 105.36-278.64 105.36-93.44 0-184.52-36.4-265.12-105.64l-64.24 64.28c-5.792 5.798-13.797 9.385-22.64 9.385-17.673 0-32-14.327-32-32 0-0.009 0-0.018 0-0.027v0.001-192c0-17.673 14.327-32 32-32v0h192c13.254 0.003 24.626 8.064 29.481 19.55l0.079 0.21z" />
<glyph unicode="&#xe95f;" glyph-name="arrows-down-up-fill" data-tags="arrows-down-up-fill" d="M477.56 268.24c1.545-3.623 2.443-7.838 2.443-12.262 0-8.832-3.578-16.828-9.363-22.618l-128-128c-5.792-5.798-13.797-9.385-22.64-9.385s-16.848 3.587-22.64 9.385v0l-128 128c-5.798 5.792-9.385 13.797-9.385 22.64 0 17.673 14.327 32 32 32 0.009 0 0.018 0 0.027 0h95.999v480c0 17.673 14.327 32 32 32s32-14.327 32-32v0-480h96c13.254-0.003 24.626-8.064 29.481-19.55l0.079-0.21zM854.64 662.64l-128 128c-5.792 5.798-13.797 9.385-22.64 9.385s-16.848-3.587-22.64-9.385v0l-128-128c-5.798-5.792-9.385-13.797-9.385-22.64 0-17.673 14.327-32 32-32 0.009 0 0.018 0 0.027 0h95.999v-480c0-17.673 14.327-32 32-32s32 14.327 32 32v0 480h96c0.007 0 0.016 0 0.025 0 17.673 0 32 14.327 32 32 0 8.843-3.587 16.848-9.385 22.64v0z" />
<glyph unicode="&#xe960;" glyph-name="arrows-horizontal-fill" data-tags="arrows-horizontal-fill" d="M950.64 425.36l-128-128c-5.792-5.798-13.797-9.385-22.64-9.385-17.673 0-32 14.327-32 32 0 0.009 0 0.018 0 0.027v-0.001 96h-512v-96c0-0.007 0-0.016 0-0.025 0-17.673-14.327-32-32-32-8.843 0-16.848 3.587-22.64 9.385v0l-128 128c-5.798 5.792-9.385 13.797-9.385 22.64s3.587 16.848 9.385 22.64v0l128 128c5.792 5.798 13.797 9.385 22.64 9.385 17.673 0 32-14.327 32-32 0-0.009 0-0.018 0-0.027v0.001-96h512v96c0 0.007 0 0.016 0 0.025 0 17.673 14.327 32 32 32 8.843 0 16.848-3.587 22.64-9.385v0l128-128c5.798-5.792 9.385-13.797 9.385-22.64s-3.587-16.848-9.385-22.64v0z" />
<glyph unicode="&#xe961;" glyph-name="arrows-in-cardinal-fill" data-tags="arrows-in-cardinal-fill" d="M406.64 425.36l-128-128c-5.792-5.798-13.797-9.385-22.64-9.385-17.673 0-32 14.327-32 32 0 0.009 0 0.018 0 0.027v-0.001 96h-128c-17.673 0-32 14.327-32 32s14.327 32 32 32v0h128v96c0 0.007 0 0.016 0 0.025 0 17.673 14.327 32 32 32 8.843 0 16.848-3.587 22.64-9.385v0l128-128c5.798-5.792 9.385-13.797 9.385-22.64s-3.587-16.848-9.385-22.64v0zM489.36 553.36c5.792-5.798 13.797-9.385 22.64-9.385s16.848 3.587 22.64 9.385v0l128 128c5.798 5.792 9.385 13.797 9.385 22.64 0 17.673-14.327 32-32 32-0.009 0-0.018 0-0.027 0h-95.999v128c0 17.673-14.327 32-32 32s-32-14.327-32-32v0-128h-96c-0.007 0-0.016 0-0.025 0-17.673 0-32-14.327-32-32 0-8.843 3.587-16.848 9.385-22.64v0zM534.64 342.64c-5.792 5.798-13.797 9.385-22.64 9.385s-16.848-3.587-22.64-9.385v0l-128-128c-5.798-5.792-9.385-13.797-9.385-22.64 0-17.673 14.327-32 32-32 0.009 0 0.018 0 0.027 0h95.999v-128c0-17.673 14.327-32 32-32s32 14.327 32 32v0 128h96c0.007 0 0.016 0 0.025 0 17.673 0 32 14.327 32 32 0 8.843-3.587 16.848-9.385 22.64v0zM928 480h-128v96c0 0.007 0 0.016 0 0.025 0 17.673-14.327 32-32 32-8.843 0-16.848-3.587-22.64-9.385v0l-128-128c-5.798-5.792-9.385-13.797-9.385-22.64s3.587-16.848 9.385-22.64v0l128-128c5.792-5.798 13.797-9.385 22.64-9.385 17.673 0 32 14.327 32 32 0 0.009 0 0.018 0 0.027v-0.001 96h128c17.673 0 32 14.327 32 32s-14.327 32-32 32v0z" />
<glyph unicode="&#xe962;" glyph-name="arrows-in-fill" data-tags="arrows-in-fill" d="M576 544v160c0 0.007 0 0.016 0 0.025 0 17.673 14.327 32 32 32 8.843 0 16.848-3.587 22.64-9.385l57.36-57.4 121.36 121.4c5.794 5.794 13.799 9.378 22.64 9.378 17.683 0 32.018-14.335 32.018-32.018 0-8.841-3.584-16.846-9.378-22.64v0l-121.4-121.36 57.4-57.36c5.798-5.792 9.385-13.797 9.385-22.64 0-17.673-14.327-32-32-32-0.009 0-0.018 0-0.027 0h-159.999c-17.673 0-32 14.327-32 32v0zM416 384h-160c-0.007 0-0.016 0-0.025 0-17.673 0-32-14.327-32-32 0-8.843 3.587-16.848 9.385-22.64l57.4-57.36-121.4-121.36c-5.794-5.794-9.378-13.799-9.378-22.64 0-17.683 14.335-32.018 32.018-32.018 8.841 0 16.846 3.584 22.64 9.378v0l121.36 121.4 57.36-57.4c5.792-5.798 13.797-9.385 22.64-9.385 17.673 0 32 14.327 32 32 0 0.009 0 0.018 0 0.027v-0.001 160c0 17.673-14.327 32-32 32v0zM428.24 733.56c-3.623 1.545-7.838 2.443-12.262 2.443-8.832 0-16.828-3.578-22.618-9.363v0l-57.36-57.4-121.36 121.4c-5.794 5.794-13.799 9.378-22.64 9.378-17.683 0-32.018-14.335-32.018-32.018 0-8.841 3.584-16.846 9.378-22.64l121.4-121.36-57.4-57.36c-5.798-5.792-9.385-13.797-9.385-22.64 0-17.673 14.327-32 32-32 0.009 0 0.018 0 0.027 0h159.999c17.673 0 32 14.327 32 32v0 160c-0.003 13.254-8.064 24.626-19.55 29.481l-0.21 0.079zM733.24 272l57.4 57.36c5.798 5.792 9.385 13.797 9.385 22.64 0 17.673-14.327 32-32 32-0.009 0-0.018 0-0.027 0h-159.999c-17.673 0-32-14.327-32-32v0-160c0-0.007 0-0.016 0-0.025 0-17.673 14.327-32 32-32 8.843 0 16.848 3.587 22.64 9.385l57.36 57.4 121.36-121.4c5.794-5.794 13.799-9.378 22.64-9.378 17.683 0 32.018 14.335 32.018 32.018 0 8.841-3.584 16.846-9.378 22.64v0z" />
<glyph unicode="&#xe963;" glyph-name="arrows-in-line-horizontal-fill" data-tags="arrows-in-line-horizontal-fill" d="M406.64 470.64c5.798-5.792 9.385-13.797 9.385-22.64s-3.587-16.848-9.385-22.64v0l-128-128c-5.792-5.798-13.797-9.385-22.64-9.385-17.673 0-32 14.327-32 32 0 0.009 0 0.018 0 0.027v-0.001 96h-160c-17.673 0-32 14.327-32 32s14.327 32 32 32v0h160v96c0 0.007 0 0.016 0 0.025 0 17.673 14.327 32 32 32 8.843 0 16.848-3.587 22.64-9.385v0zM960 480h-160v96c0 0.007 0 0.016 0 0.025 0 17.673-14.327 32-32 32-8.843 0-16.848-3.587-22.64-9.385v0l-128-128c-5.798-5.792-9.385-13.797-9.385-22.64s3.587-16.848 9.385-22.64v0l128-128c5.792-5.798 13.797-9.385 22.64-9.385 17.673 0 32 14.327 32 32 0 0.009 0 0.018 0 0.027v-0.001 96h160c17.673 0 32 14.327 32 32s-14.327 32-32 32v0zM512 832c-17.673 0-32-14.327-32-32v0-704c0-17.673 14.327-32 32-32s32 14.327 32 32v0 704c0 17.673-14.327 32-32 32v0z" />
<glyph unicode="&#xe964;" glyph-name="arrows-in-line-vertical-fill" data-tags="arrows-in-line-vertical-fill" d="M361.36 681.36c-5.798 5.792-9.385 13.797-9.385 22.64 0 17.673 14.327 32 32 32 0.009 0 0.018 0 0.027 0h95.999v160c0 17.673 14.327 32 32 32s32-14.327 32-32v0-160h96c0.007 0 0.016 0 0.025 0 17.673 0 32-14.327 32-32 0-8.843-3.587-16.848-9.385-22.64v0l-128-128c-5.792-5.798-13.797-9.385-22.64-9.385s-16.848 3.587-22.64 9.385v0zM534.64 342.64c-5.792 5.798-13.797 9.385-22.64 9.385s-16.848-3.587-22.64-9.385v0l-128-128c-5.798-5.792-9.385-13.797-9.385-22.64 0-17.673 14.327-32 32-32 0.009 0 0.018 0 0.027 0h95.999v-160c0-17.673 14.327-32 32-32s32 14.327 32 32v0 160h96c0.007 0 0.016 0 0.025 0 17.673 0 32 14.327 32 32 0 8.843-3.587 16.848-9.385 22.64v0zM864 480h-704c-17.673 0-32-14.327-32-32s14.327-32 32-32v0h704c17.673 0 32 14.327 32 32s-14.327 32-32 32v0z" />
<glyph unicode="&#xe965;" glyph-name="arrows-in-simple-fill" data-tags="arrows-in-simple-fill" d="M480 384v-192c0-0.007 0-0.016 0-0.025 0-17.673-14.327-32-32-32-8.843 0-16.848 3.587-22.64 9.385l-73.36 73.4-137.36-137.4c-5.794-5.794-13.799-9.378-22.64-9.378-17.683 0-32.018 14.335-32.018 32.018 0 8.841 3.584 16.846 9.378 22.64v0l137.4 137.36-73.4 73.36c-5.798 5.792-9.385 13.797-9.385 22.64 0 17.673 14.327 32 32 32 0.009 0 0.018 0 0.027 0h191.999c17.673 0 32-14.327 32-32v0zM854.64 790.64c-5.792 5.798-13.797 9.385-22.64 9.385s-16.848-3.587-22.64-9.385l-137.36-137.4-73.36 73.4c-5.792 5.798-13.797 9.385-22.64 9.385-17.673 0-32-14.327-32-32 0-0.009 0-0.018 0-0.027v0.001-192c0-17.673 14.327-32 32-32v0h192c0.007 0 0.016 0 0.025 0 17.673 0 32 14.327 32 32 0 8.843-3.587 16.848-9.385 22.64l-73.4 73.36 137.4 137.36c5.798 5.792 9.385 13.797 9.385 22.64s-3.587 16.848-9.385 22.64v0z" />
<glyph unicode="&#xe966;" glyph-name="arrows-left-right-fill" data-tags="arrows-left-right-fill" d="M169.36 617.36c-5.798 5.792-9.385 13.797-9.385 22.64s3.587 16.848 9.385 22.64v0l128 128c5.792 5.798 13.797 9.385 22.64 9.385 17.673 0 32-14.327 32-32 0-0.009 0-0.018 0-0.027v0.001-96h480c17.673 0 32-14.327 32-32s-14.327-32-32-32v0h-480v-96c0-0.007 0-0.016 0-0.025 0-17.673-14.327-32-32-32-8.843 0-16.848 3.587-22.64 9.385v0zM854.64 278.64l-128 128c-5.792 5.798-13.797 9.385-22.64 9.385-17.673 0-32-14.327-32-32 0-0.009 0-0.018 0-0.027v0.001-96h-480c-17.673 0-32-14.327-32-32s14.327-32 32-32v0h480v-96c0-0.007 0-0.016 0-0.025 0-17.673 14.327-32 32-32 8.843 0 16.848 3.587 22.64 9.385v0l128 128c5.798 5.792 9.385 13.797 9.385 22.64s-3.587 16.848-9.385 22.64v0z" />
<glyph unicode="&#xe967;" glyph-name="arrows-merge-fill" data-tags="arrows-merge-fill" d="M768 800v-256c0-0.007 0-0.016 0-0.025 0-8.83-3.577-16.825-9.36-22.615v0l-214.64-214.6v-114.76h96c0.007 0 0.016 0 0.025 0 17.673 0 32-14.327 32-32 0-8.843-3.587-16.848-9.385-22.64v0l-128-128c-5.792-5.798-13.797-9.385-22.64-9.385s-16.848 3.587-22.64 9.385v0l-128 128c-5.798 5.792-9.385 13.797-9.385 22.64 0 17.673 14.327 32 32 32 0.009 0 0.018 0 0.027 0h95.999v114.76l-214.64 214.6c-5.783 5.79-9.36 13.785-9.36 22.615 0 0.009 0 0.018 0 0.027v-0.001 256c0 17.673 14.327 32 32 32s32-14.327 32-32v0-242.76l192-192 192 192v242.76c0 17.673 14.327 32 32 32s32-14.327 32-32v0z" />
<glyph unicode="&#xe968;" glyph-name="arrows-out-cardinal-fill" data-tags="arrows-out-cardinal-fill" d="M384 416h-128v-96c0-0.007 0-0.016 0-0.025 0-17.673-14.327-32-32-32-8.843 0-16.848 3.587-22.64 9.385v0l-128 128c-5.798 5.792-9.385 13.797-9.385 22.64s3.587 16.848 9.385 22.64v0l128 128c5.792 5.798 13.797 9.385 22.64 9.385 17.673 0 32-14.327 32-32 0-0.009 0-0.018 0-0.027v0.001-96h128c17.673 0 32-14.327 32-32s-14.327-32-32-32v0zM384 704h96v-128c0-17.673 14.327-32 32-32s32 14.327 32 32v0 128h96c0.007 0 0.016 0 0.025 0 17.673 0 32 14.327 32 32 0 8.843-3.587 16.848-9.385 22.64v0l-128 128c-5.792 5.798-13.797 9.385-22.64 9.385s-16.848-3.587-22.64-9.385v0l-128-128c-5.798-5.792-9.385-13.797-9.385-22.64 0-17.673 14.327-32 32-32 0.009 0 0.018 0 0.027 0h-0.001zM950.64 470.64l-128 128c-5.792 5.798-13.797 9.385-22.64 9.385-17.673 0-32-14.327-32-32 0-0.009 0-0.018 0-0.027v0.001-96h-128c-17.673 0-32-14.327-32-32s14.327-32 32-32v0h128v-96c0-0.007 0-0.016 0-0.025 0-17.673 14.327-32 32-32 8.843 0 16.848 3.587 22.64 9.385v0l128 128c5.798 5.792 9.385 13.797 9.385 22.64s-3.587 16.848-9.385 22.64v0zM640 192h-96v128c0 17.673-14.327 32-32 32s-32-14.327-32-32v0-128h-96c-0.007 0-0.016 0-0.025 0-17.673 0-32-14.327-32-32 0-8.843 3.587-16.848 9.385-22.64v0l128-128c5.792-5.798 13.797-9.385 22.64-9.385s16.848 3.587 22.64 9.385v0l128 128c5.798 5.792 9.385 13.797 9.385 22.64 0 17.673-14.327 32-32 32-0.009 0-0.018 0-0.027 0h0.001z" />
<glyph unicode="&#xe969;" glyph-name="arrows-out-fill" data-tags="arrows-out-fill" d="M438.64 374.64c5.798-5.792 9.385-13.797 9.385-22.64s-3.587-16.848-9.385-22.64l-105.4-105.36 73.4-73.36c5.798-5.792 9.385-13.797 9.385-22.64 0-17.673-14.327-32-32-32-0.009 0-0.018 0-0.027 0h-191.999c-17.673 0-32 14.327-32 32v0 192c0 0.007 0 0.016 0 0.025 0 17.673 14.327 32 32 32 8.843 0 16.848-3.587 22.64-9.385l73.36-73.4 105.36 105.4c5.792 5.798 13.797 9.385 22.64 9.385s16.848-3.587 22.64-9.385v0zM333.24 672l73.4 73.36c5.798 5.792 9.385 13.797 9.385 22.64 0 17.673-14.327 32-32 32-0.009 0-0.018 0-0.027 0h-191.999c-17.673 0-32-14.327-32-32v0-192c0-0.007 0-0.016 0-0.025 0-17.673 14.327-32 32-32 8.843 0 16.848 3.587 22.64 9.385l73.36 73.4 105.36-105.4c5.794-5.794 13.799-9.378 22.64-9.378 17.683 0 32.018 14.335 32.018 32.018 0 8.841-3.584 16.846-9.378 22.64v0zM832 800h-192c-0.007 0-0.016 0-0.025 0-17.673 0-32-14.327-32-32 0-8.843 3.587-16.848 9.385-22.64l73.4-73.36-105.4-105.36c-5.794-5.794-9.378-13.799-9.378-22.64 0-17.683 14.335-32.018 32.018-32.018 8.841 0 16.846 3.584 22.64 9.378l105.36 105.4 73.36-73.4c5.792-5.798 13.797-9.385 22.64-9.385 17.673 0 32 14.327 32 32 0 0.009 0 0.018 0 0.027v-0.001 192c0 17.673-14.327 32-32 32v0zM844.24 349.56c-3.623 1.545-7.838 2.443-12.262 2.443-8.832 0-16.828-3.578-22.618-9.363v0l-73.36-73.4-105.36 105.4c-5.794 5.794-13.799 9.378-22.64 9.378-17.683 0-32.018-14.335-32.018-32.018 0-8.841 3.584-16.846 9.378-22.64l105.4-105.36-73.4-73.36c-5.798-5.792-9.385-13.797-9.385-22.64 0-17.673 14.327-32 32-32 0.009 0 0.018 0 0.027 0h191.999c17.673 0 32 14.327 32 32v0 192c-0.003 13.254-8.064 24.626-19.55 29.481l-0.21 0.079z" />
<glyph unicode="&#xe96a;" glyph-name="arrows-out-line-horizontal-fill" data-tags="arrows-out-line-horizontal-fill" d="M416 448c0-17.673-14.327-32-32-32v0h-160v-96c0-0.007 0-0.016 0-0.025 0-17.673-14.327-32-32-32-8.843 0-16.848 3.587-22.64 9.385v0l-128 128c-5.798 5.792-9.385 13.797-9.385 22.64s3.587 16.848 9.385 22.64v0l128 128c5.792 5.798 13.797 9.385 22.64 9.385 17.673 0 32-14.327 32-32 0-0.009 0-0.018 0-0.027v0.001-96h160c17.673 0 32-14.327 32-32v0zM982.64 470.64l-128 128c-5.792 5.798-13.797 9.385-22.64 9.385-17.673 0-32-14.327-32-32 0-0.009 0-0.018 0-0.027v0.001-96h-160c-17.673 0-32-14.327-32-32s14.327-32 32-32v0h160v-96c0-0.007 0-0.016 0-0.025 0-17.673 14.327-32 32-32 8.843 0 16.848 3.587 22.64 9.385v0l128 128c5.798 5.792 9.385 13.797 9.385 22.64s-3.587 16.848-9.385 22.64v0zM512 832c-17.673 0-32-14.327-32-32v0-704c0-17.673 14.327-32 32-32s32 14.327 32 32v0 704c0 17.673-14.327 32-32 32v0z" />
<glyph unicode="&#xe96b;" glyph-name="arrows-out-line-vertical-fill" data-tags="arrows-out-line-vertical-fill" d="M354.44 755.76c-1.545 3.623-2.443 7.838-2.443 12.262 0 8.832 3.578 16.828 9.363 22.618l128 128c5.792 5.798 13.797 9.385 22.64 9.385s16.848-3.587 22.64-9.385v0l128-128c5.798-5.792 9.385-13.797 9.385-22.64 0-17.673-14.327-32-32-32-0.009 0-0.018 0-0.027 0h-95.999v-160c0-17.673-14.327-32-32-32s-32 14.327-32 32v0 160h-96c-13.254 0.003-24.626 8.064-29.481 19.55l-0.079 0.21zM864 480h-704c-17.673 0-32-14.327-32-32s14.327-32 32-32v0h704c17.673 0 32 14.327 32 32s-14.327 32-32 32v0zM640 160h-96v160c0 17.673-14.327 32-32 32s-32-14.327-32-32v0-160h-96c-0.007 0-0.016 0-0.025 0-17.673 0-32-14.327-32-32 0-8.843 3.587-16.848 9.385-22.64v0l128-128c5.792-5.798 13.797-9.385 22.64-9.385s16.848 3.587 22.64 9.385v0l128 128c5.798 5.792 9.385 13.797 9.385 22.64 0 17.673-14.327 32-32 32-0.009 0-0.018 0-0.027 0h0.001z" />
<glyph unicode="&#xe96c;" glyph-name="arrows-out-simple-fill" data-tags="arrows-out-simple-fill" d="M470.64 406.64c5.798-5.792 9.385-13.797 9.385-22.64s-3.587-16.848-9.385-22.64l-137.4-137.36 73.4-73.36c5.798-5.792 9.385-13.797 9.385-22.64 0-17.673-14.327-32-32-32-0.009 0-0.018 0-0.027 0h-191.999c-17.673 0-32 14.327-32 32v0 192c0 0.007 0 0.016 0 0.025 0 17.673 14.327 32 32 32 8.843 0 16.848-3.587 22.64-9.385l73.36-73.4 137.36 137.4c5.792 5.798 13.797 9.385 22.64 9.385s16.848-3.587 22.64-9.385v0zM832 800h-192c-0.007 0-0.016 0-0.025 0-17.673 0-32-14.327-32-32 0-8.843 3.587-16.848 9.385-22.64l73.4-73.36-137.4-137.36c-5.794-5.794-9.378-13.799-9.378-22.64 0-17.683 14.335-32.018 32.018-32.018 8.841 0 16.846 3.584 22.64 9.378l137.36 137.4 73.36-73.4c5.792-5.798 13.797-9.385 22.64-9.385 17.673 0 32 14.327 32 32 0 0.009 0 0.018 0 0.027v-0.001 192c0 17.673-14.327 32-32 32v0z" />
<glyph unicode="&#xe96d;" glyph-name="arrow-square-down-fill" data-tags="arrow-square-down-fill" d="M832 832h-640c-35.346 0-64-28.654-64-64v0-640c0-35.346 28.654-64 64-64v0h640c35.346 0 64 28.654 64 64v0 640c0 35.346-28.654 64-64 64v0zM662.64 393.36l-128-128c-5.792-5.798-13.797-9.385-22.64-9.385s-16.848 3.587-22.64 9.385v0l-128 128c-5.794 5.794-9.378 13.799-9.378 22.64 0 17.683 14.335 32.018 32.018 32.018 8.841 0 16.846-3.584 22.64-9.378l73.36-73.4v242.76c0 17.673 14.327 32 32 32s32-14.327 32-32v0-242.76l73.36 73.4c5.794 5.794 13.799 9.378 22.64 9.378 17.683 0 32.018-14.335 32.018-32.018 0-8.841-3.584-16.846-9.378-22.64v0z" />
<glyph unicode="&#xe96e;" glyph-name="arrow-square-down-left-fill" data-tags="arrow-square-down-left-fill" d="M832 832h-640c-35.346 0-64-28.654-64-64v0-640c0-35.346 28.654-64 64-64v0h640c35.346 0 64 28.654 64 64v0 640c0 35.346-28.654 64-64 64v0zM662.64 553.36l-201.4-201.36h114.76c17.673 0 32-14.327 32-32s-14.327-32-32-32v0h-192c-17.673 0-32 14.327-32 32v0 192c0 17.673 14.327 32 32 32s32-14.327 32-32v0-114.76l201.36 201.4c5.794 5.794 13.799 9.378 22.64 9.378 17.683 0 32.018-14.335 32.018-32.018 0-8.841-3.584-16.846-9.378-22.64v0z" />
<glyph unicode="&#xe96f;" glyph-name="arrow-square-down-right-fill" data-tags="arrow-square-down-right-fill" d="M832 832h-640c-35.346 0-64-28.654-64-64v0-640c0-35.346 28.654-64 64-64v0h640c35.346 0 64 28.654 64 64v0 640c0 35.346-28.654 64-64 64v0zM672 320c0-17.673-14.327-32-32-32v0h-192c-17.673 0-32 14.327-32 32s14.327 32 32 32v0h114.76l-201.4 201.36c-5.794 5.794-9.378 13.799-9.378 22.64 0 17.683 14.335 32.018 32.018 32.018 8.841 0 16.846-3.584 22.64-9.378l201.36-201.4v114.76c0 17.673 14.327 32 32 32s32-14.327 32-32v0z" />
<glyph unicode="&#xe970;" glyph-name="arrow-square-in-fill" data-tags="arrow-square-in-fill" d="M512 416v-256c0-0.007 0-0.016 0-0.025 0-17.673-14.327-32-32-32-8.843 0-16.848 3.587-22.64 9.385l-105.36 105.4-169.36-169.4c-5.794-5.794-13.799-9.378-22.64-9.378-17.683 0-32.018 14.335-32.018 32.018 0 8.841 3.584 16.846 9.378 22.64v0l169.4 169.36-105.4 105.36c-5.798 5.792-9.385 13.797-9.385 22.64 0 17.673 14.327 32 32 32 0.009 0 0.018 0 0.027 0h255.999c17.673 0 32-14.327 32-32v0zM832 832h-512c-35.346 0-64-28.654-64-64v0-192c0-17.673 14.327-32 32-32s32 14.327 32 32v0 192h512v-512h-192c-17.673 0-32-14.327-32-32s14.327-32 32-32v0h192c35.346 0 64 28.654 64 64v0 512c0 35.346-28.654 64-64 64v0z" />
<glyph unicode="&#xe971;" glyph-name="arrow-square-left-fill" data-tags="arrow-square-left-fill" d="M832 832h-640c-35.346 0-64-28.654-64-64v0-640c0-35.346 28.654-64 64-64v0h640c35.346 0 64 28.654 64 64v0 640c0 35.346-28.654 64-64 64v0zM672 416h-242.76l73.4-73.36c5.794-5.794 9.378-13.799 9.378-22.64 0-17.683-14.335-32.018-32.018-32.018-8.841 0-16.846 3.584-22.64 9.378l-128 128c-5.798 5.792-9.385 13.797-9.385 22.64s3.587 16.848 9.385 22.64v0l128 128c5.794 5.794 13.799 9.378 22.64 9.378 17.683 0 32.018-14.335 32.018-32.018 0-8.841-3.584-16.846-9.378-22.64l-73.4-73.36h242.76c17.673 0 32-14.327 32-32s-14.327-32-32-32v0z" />
<glyph unicode="&#xe972;" glyph-name="arrow-square-out-fill" data-tags="arrow-square-out-fill" d="M768 416v-288c0-35.346-28.654-64-64-64v0h-512c-35.346 0-64 28.654-64 64v0 512c0 35.346 28.654 64 64 64v0h288c17.673 0 32-14.327 32-32s-14.327-32-32-32v0h-288v-512h512v288c0 17.673 14.327 32 32 32s32-14.327 32-32v0zM896 800c0 17.673-14.327 32-32 32v0h-256c-0.007 0-0.016 0-0.025 0-17.673 0-32-14.327-32-32 0-8.843 3.587-16.848 9.385-22.64l105.4-105.36-169.4-169.36c-5.794-5.794-9.378-13.799-9.378-22.64 0-17.683 14.335-32.018 32.018-32.018 8.841 0 16.846 3.584 22.64 9.378l169.36 169.4 105.36-105.4c5.792-5.798 13.797-9.385 22.64-9.385 17.673 0 32 14.327 32 32 0 0.009 0 0.018 0 0.027v-0.001z" />
<glyph unicode="&#xe973;" glyph-name="arrow-square-right-fill" data-tags="arrow-square-right-fill" d="M832 832h-640c-35.346 0-64-28.654-64-64v0-640c0-35.346 28.654-64 64-64v0h640c35.346 0 64 28.654 64 64v0 640c0 35.346-28.654 64-64 64v0zM694.64 425.36l-128-128c-5.794-5.794-13.799-9.378-22.64-9.378-17.683 0-32.018 14.335-32.018 32.018 0 8.841 3.584 16.846 9.378 22.64l73.4 73.36h-242.76c-17.673 0-32 14.327-32 32s14.327 32 32 32v0h242.76l-73.4 73.36c-5.794 5.794-9.378 13.799-9.378 22.64 0 17.683 14.335 32.018 32.018 32.018 8.841 0 16.846-3.584 22.64-9.378l128-128c5.798-5.792 9.385-13.797 9.385-22.64s-3.587-16.848-9.385-22.64v0z" />
<glyph unicode="&#xe974;" glyph-name="arrow-square-up-fill" data-tags="arrow-square-up-fill" d="M832 832h-640c-35.346 0-64-28.654-64-64v0-640c0-35.346 28.654-64 64-64v0h640c35.346 0 64 28.654 64 64v0 640c0 35.346-28.654 64-64 64v0zM662.64 457.36c-5.792-5.798-13.797-9.385-22.64-9.385s-16.848 3.587-22.64 9.385l-73.36 73.4v-242.76c0-17.673-14.327-32-32-32s-32 14.327-32 32v0 242.76l-73.36-73.4c-5.794-5.794-13.799-9.378-22.64-9.378-17.683 0-32.018 14.335-32.018 32.018 0 8.841 3.584 16.846 9.378 22.64l128 128c5.792 5.798 13.797 9.385 22.64 9.385s16.848-3.587 22.64-9.385v0l128-128c5.798-5.792 9.385-13.797 9.385-22.64s-3.587-16.848-9.385-22.64v0z" />
<glyph unicode="&#xe975;" glyph-name="arrow-square-up-left-fill" data-tags="arrow-square-up-left-fill" d="M832 832h-640c-35.346 0-64-28.654-64-64v0-640c0-35.346 28.654-64 64-64v0h640c35.346 0 64 28.654 64 64v0 640c0 35.346-28.654 64-64 64v0zM662.64 297.36c-5.792-5.798-13.797-9.385-22.64-9.385s-16.848 3.587-22.64 9.385v0l-201.36 201.4v-114.76c0-17.673-14.327-32-32-32s-32 14.327-32 32v0 192c0 17.673 14.327 32 32 32v0h192c17.673 0 32-14.327 32-32s-14.327-32-32-32v0h-114.76l201.4-201.36c5.798-5.792 9.385-13.797 9.385-22.64s-3.587-16.848-9.385-22.64v0z" />
<glyph unicode="&#xe976;" glyph-name="arrow-square-up-right-fill" data-tags="arrow-square-up-right-fill" d="M832 832h-640c-35.346 0-64-28.654-64-64v0-640c0-35.346 28.654-64 64-64v0h640c35.346 0 64 28.654 64 64v0 640c0 35.346-28.654 64-64 64v0zM672 384c0-17.673-14.327-32-32-32s-32 14.327-32 32v0 114.76l-201.36-201.4c-5.794-5.794-13.799-9.378-22.64-9.378-17.683 0-32.018 14.335-32.018 32.018 0 8.841 3.584 16.846 9.378 22.64l201.4 201.36h-114.76c-17.673 0-32 14.327-32 32s14.327 32 32 32v0h192c17.673 0 32-14.327 32-32v0z" />
<glyph unicode="&#xe977;" glyph-name="arrows-split-fill" data-tags="arrows-split-fill" d="M918.64 201.36l-128-128c-5.792-5.798-13.797-9.385-22.64-9.385s-16.848 3.587-22.64 9.385v0l-128 128c-5.798 5.792-9.385 13.797-9.385 22.64 0 17.673 14.327 32 32 32 0.009 0 0.018 0 0.027 0h95.999v146.76l-224 224-224-224v-146.76h96c0.007 0 0.016 0 0.025 0 17.673 0 32-14.327 32-32 0-8.843-3.587-16.848-9.385-22.64v0l-128-128c-5.792-5.798-13.797-9.385-22.64-9.385s-16.848 3.587-22.64 9.385v0l-128 128c-5.798 5.792-9.385 13.797-9.385 22.64 0 17.673 14.327 32 32 32 0.009 0 0.018 0 0.027 0h95.999v160c0 0.007 0 0.016 0 0.025 0 8.83 3.577 16.825 9.36 22.615v0l246.64 246.6v178.76c0 17.673 14.327 32 32 32s32-14.327 32-32v0-178.76l246.64-246.6c5.783-5.79 9.36-13.785 9.36-22.615 0-0.009 0-0.018 0-0.027v0.001-160h96c0.007 0 0.016 0 0.025 0 17.673 0 32-14.327 32-32 0-8.843-3.587-16.848-9.385-22.64v0z" />
<glyph unicode="&#xe978;" glyph-name="arrows-vertical-fill" data-tags="arrows-vertical-fill" d="M669.56 172.24c1.545-3.623 2.443-7.838 2.443-12.262 0-8.832-3.578-16.828-9.363-22.618l-128-128c-5.792-5.798-13.797-9.385-22.64-9.385s-16.848 3.587-22.64 9.385v0l-128 128c-5.798 5.792-9.385 13.797-9.385 22.64 0 17.673 14.327 32 32 32 0.009 0 0.018 0 0.027 0h95.999v512h-96c-0.007 0-0.016 0-0.025 0-17.673 0-32 14.327-32 32 0 8.843 3.587 16.848 9.385 22.64v0l128 128c5.792 5.798 13.797 9.385 22.64 9.385s16.848-3.587 22.64-9.385v0l128-128c5.798-5.792 9.385-13.797 9.385-22.64 0-17.673-14.327-32-32-32-0.009 0-0.018 0-0.027 0h-95.999v-512h96c13.254-0.003 24.626-8.064 29.481-19.55l0.079-0.21z" />
<glyph unicode="&#xe979;" glyph-name="arrow-u-down-left-fill" data-tags="arrow-u-down-left-fill" d="M928 512c-0.159-141.321-114.679-255.841-255.985-256h-320.015v-160c0-0.007 0-0.016 0-0.025 0-17.673-14.327-32-32-32-8.843 0-16.848 3.587-22.64 9.385v0l-192 192c-5.798 5.792-9.385 13.797-9.385 22.64s3.587 16.848 9.385 22.64v0l192 192c5.792 5.798 13.797 9.385 22.64 9.385 17.673 0 32-14.327 32-32 0-0.009 0-0.018 0-0.027v0.001-160h320c106.039 0 192 85.961 192 192s-85.961 192-192 192v0h-352c-17.673 0-32 14.327-32 32s14.327 32 32 32v0h352c141.321-0.159 255.841-114.679 256-255.985v-0.015z" />
<glyph unicode="&#xe97a;" glyph-name="arrow-u-down-right-fill" data-tags="arrow-u-down-right-fill" d="M918.64 265.36l-192-192c-5.792-5.798-13.797-9.385-22.64-9.385-17.673 0-32 14.327-32 32 0 0.009 0 0.018 0 0.027v-0.001 160h-320c-141.385 0-256 114.615-256 256s114.615 256 256 256v0h352c17.673 0 32-14.327 32-32s-14.327-32-32-32v0h-352c-106.039 0-192-85.961-192-192s85.961-192 192-192v0h320v160c0 0.007 0 0.016 0 0.025 0 17.673 14.327 32 32 32 8.843 0 16.848-3.587 22.64-9.385v0l192-192c5.798-5.792 9.385-13.797 9.385-22.64s-3.587-16.848-9.385-22.64v0z" />
<glyph unicode="&#xe97b;" glyph-name="arrow-u-left-down-fill" data-tags="arrow-u-left-down-fill" d="M832 608v-352c0-17.673-14.327-32-32-32s-32 14.327-32 32v0 352c0 106.039-85.961 192-192 192s-192-85.961-192-192v0-320h160c0.007 0 0.016 0 0.025 0 17.673 0 32-14.327 32-32 0-8.843-3.587-16.848-9.385-22.64v0l-192-192c-5.792-5.798-13.797-9.385-22.64-9.385s-16.848 3.587-22.64 9.385v0l-192 192c-5.798 5.792-9.385 13.797-9.385 22.64 0 17.673 14.327 32 32 32 0.009 0 0.018 0 0.027 0h159.999v320c0 141.385 114.615 256 256 256s256-114.615 256-256v0z" />
<glyph unicode="&#xe97c;" glyph-name="arrow-u-left-up-fill" data-tags="arrow-u-left-up-fill" d="M832 640v-352c0-141.385-114.615-256-256-256s-256 114.615-256 256v0 320h-160c-0.007 0-0.016 0-0.025 0-17.673 0-32 14.327-32 32 0 8.843 3.587 16.848 9.385 22.64v0l192 192c5.792 5.798 13.797 9.385 22.64 9.385s16.848-3.587 22.64-9.385v0l192-192c5.798-5.792 9.385-13.797 9.385-22.64 0-17.673-14.327-32-32-32-0.009 0-0.018 0-0.027 0h-159.999v-320c0-106.039 85.961-192 192-192s192 85.961 192 192v0 352c0 17.673 14.327 32 32 32s32-14.327 32-32v0z" />
<glyph unicode="&#xe97d;" glyph-name="arrow-up-fill" data-tags="arrow-up-fill" d="M829.56 499.76c-4.934-11.696-16.306-19.757-29.56-19.76h-256v-384c0-17.673-14.327-32-32-32s-32 14.327-32 32v0 384h-256c-0.007 0-0.016 0-0.025 0-17.673 0-32 14.327-32 32 0 8.843 3.587 16.848 9.385 22.64v0l288 288c5.792 5.798 13.797 9.385 22.64 9.385s16.848-3.587 22.64-9.385v0l288-288c5.785-5.79 9.363-13.786 9.363-22.618 0-4.425-0.898-8.639-2.522-12.472l0.079 0.21z" />
<glyph unicode="&#xe97e;" glyph-name="arrow-up-left-fill" data-tags="arrow-up-left-fill" d="M790.64 169.36c-5.792-5.798-13.797-9.385-22.64-9.385s-16.848 3.587-22.64 9.385v0l-281.36 281.4-185.36-185.4c-5.792-5.798-13.797-9.385-22.64-9.385-17.673 0-32 14.327-32 32 0 0.009 0 0.018 0 0.027v-0.001 416c0 17.673 14.327 32 32 32v0h416c0.007 0 0.016 0 0.025 0 17.673 0 32-14.327 32-32 0-8.843-3.587-16.848-9.385-22.64v0l-185.4-185.36 281.4-281.36c5.798-5.792 9.385-13.797 9.385-22.64s-3.587-16.848-9.385-22.64v0z" />
<glyph unicode="&#xe97f;" glyph-name="arrow-up-right-fill" data-tags="arrow-up-right-fill" d="M800 704v-416c0-0.007 0-0.016 0-0.025 0-17.673-14.327-32-32-32-8.843 0-16.848 3.587-22.64 9.385v0l-185.36 185.4-281.36-281.4c-5.794-5.794-13.799-9.378-22.64-9.378-17.683 0-32.018 14.335-32.018 32.018 0 8.841 3.584 16.846 9.378 22.64v0l281.4 281.36-185.4 185.36c-5.798 5.792-9.385 13.797-9.385 22.64 0 17.673 14.327 32 32 32 0.009 0 0.018 0 0.027 0h415.999c17.673 0 32-14.327 32-32v0z" />
<glyph unicode="&#xe980;" glyph-name="arrow-u-right-down-fill" data-tags="arrow-u-right-down-fill" d="M886.64 233.36l-192-192c-5.792-5.798-13.797-9.385-22.64-9.385s-16.848 3.587-22.64 9.385v0l-192 192c-5.798 5.792-9.385 13.797-9.385 22.64 0 17.673 14.327 32 32 32 0.009 0 0.018 0 0.027 0h159.999v320c0 106.039-85.961 192-192 192s-192-85.961-192-192v0-352c0-17.673-14.327-32-32-32s-32 14.327-32 32v0 352c0 141.385 114.615 256 256 256s256-114.615 256-256v0-320h160c0.007 0 0.016 0 0.025 0 17.673 0 32-14.327 32-32 0-8.843-3.587-16.848-9.385-22.64v0z" />
<glyph unicode="&#xe981;" glyph-name="arrow-u-right-up-fill" data-tags="arrow-u-right-up-fill" d="M893.56 627.76c-4.934-11.696-16.306-19.757-29.56-19.76h-160v-320c0-141.385-114.615-256-256-256s-256 114.615-256 256v0 352c0 17.673 14.327 32 32 32s32-14.327 32-32v0-352c0-106.039 85.961-192 192-192s192 85.961 192 192v0 320h-160c-0.007 0-0.016 0-0.025 0-17.673 0-32 14.327-32 32 0 8.843 3.587 16.848 9.385 22.64v0l192 192c5.792 5.798 13.797 9.385 22.64 9.385s16.848-3.587 22.64-9.385v0l192-192c5.785-5.79 9.363-13.786 9.363-22.618 0-4.425-0.898-8.639-2.522-12.472l0.079 0.21z" />
<glyph unicode="&#xe982;" glyph-name="arrow-u-up-left-fill" data-tags="arrow-u-up-left-fill" d="M928 384c-0.159-141.321-114.679-255.841-255.985-256h-352.015c-17.673 0-32 14.327-32 32s14.327 32 32 32v0h352c106.039 0 192 85.961 192 192s-85.961 192-192 192v0h-320v-160c0-0.007 0-0.016 0-0.025 0-17.673-14.327-32-32-32-8.843 0-16.848 3.587-22.64 9.385v0l-192 192c-5.798 5.792-9.385 13.797-9.385 22.64s3.587 16.848 9.385 22.64v0l192 192c5.792 5.798 13.797 9.385 22.64 9.385 17.673 0 32-14.327 32-32 0-0.009 0-0.018 0-0.027v0.001-160h320c141.321-0.159 255.841-114.679 256-255.985v-0.015z" />
<glyph unicode="&#xe983;" glyph-name="arrow-u-up-right-fill" data-tags="arrow-u-up-right-fill" d="M672 416v160h-320c-106.039 0-192-85.961-192-192s85.961-192 192-192v0h352c17.673 0 32-14.327 32-32s-14.327-32-32-32v0h-352c-141.385 0-256 114.615-256 256s114.615 256 256 256v0h320v160c0 0.007 0 0.016 0 0.025 0 17.673 14.327 32 32 32 8.843 0 16.848-3.587 22.64-9.385v0l192-192c5.798-5.792 9.385-13.797 9.385-22.64s-3.587-16.848-9.385-22.64v0l-192-192c-5.792-5.798-13.797-9.385-22.64-9.385-17.673 0-32 14.327-32 32 0 0.009 0 0.018 0 0.027v-0.001z" />
<glyph unicode="&#xe984;" glyph-name="article-fill" data-tags="article-fill" d="M864 800h-704c-35.346 0-64-28.654-64-64v0-576c0-35.346 28.654-64 64-64v0h704c35.346 0 64 28.654 64 64v0 576c0 35.346-28.654 64-64 64v0zM704 288h-384c-17.673 0-32 14.327-32 32s14.327 32 32 32v0h384c17.673 0 32-14.327 32-32s-14.327-32-32-32v0zM704 416h-384c-17.673 0-32 14.327-32 32s14.327 32 32 32v0h384c17.673 0 32-14.327 32-32s-14.327-32-32-32v0zM704 544h-384c-17.673 0-32 14.327-32 32s14.327 32 32 32v0h384c17.673 0 32-14.327 32-32s-14.327-32-32-32v0z" />
<glyph unicode="&#xe985;" glyph-name="article-medium-fill" data-tags="article-medium-fill" d="M224 384c0-17.673-14.327-32-32-32v0h-96c-17.673 0-32 14.327-32 32s14.327 32 32 32v0h32v256h-32c-17.673 0-32 14.327-32 32s14.327 32 32 32v0h64c0.010 0 0.022 0 0.034 0 11.355 0 21.329-5.914 27.009-14.831l0.077-0.129 132.88-212.68 132.88 212.6c5.746 9.087 15.738 15.034 27.119 15.040h64.001c17.673 0 32-14.327 32-32s-14.327-32-32-32v0h-32v-256h32c17.673 0 32-14.327 32-32s-14.327-32-32-32v0h-96c-17.673 0-32 14.327-32 32s14.327 32 32 32v0 176.44l-100.88-161.4c-5.751-9.077-15.742-15.015-27.12-15.015s-21.369 5.938-27.043 14.884l-0.077 0.131-100.88 161.4v-176.44c17.673 0 32-14.327 32-32v0zM960 480h-288c-17.673 0-32-14.327-32-32v0-64c0-17.673 14.327-32 32-32v0h288c17.673 0 32 14.327 32 32v0 64c0 17.673-14.327 32-32 32v0zM960 288h-672c-17.673 0-32-14.327-32-32v0-64c0-17.673 14.327-32 32-32v0h672c17.673 0 32 14.327 32 32v0 64c0 17.673-14.327 32-32 32v0zM960 672h-288c-17.673 0-32-14.327-32-32v0-64c0-17.673 14.327-32 32-32v0h288c17.673 0 32 14.327 32 32v0 64c0 17.673-14.327 32-32 32v0z" />
<glyph unicode="&#xe986;" glyph-name="article-ny-times-fill" data-tags="article-ny-times-fill" d="M992 576v-64c0-17.673-14.327-32-32-32v0h-320c-17.673 0-32 14.327-32 32v0 64c0 17.673 14.327 32 32 32v0h320c17.673 0 32-14.327 32-32v0zM960 416h-320c-17.673 0-32-14.327-32-32v0-64c0-17.673 14.327-32 32-32v0h320c17.673 0 32 14.327 32 32v0 64c0 17.673-14.327 32-32 32v0zM960 224h-672c-17.673 0-32-14.327-32-32v0-64c0-17.673 14.327-32 32-32v0h672c17.673 0 32 14.327 32 32v0 64c0 17.673-14.327 32-32 32v0zM320 288c-123.657 0.137-223.863 100.343-224 223.987v0.013c0 0.050 0 0.109 0 0.168 0 30.225 6.041 59.039 16.982 85.3l-0.542-1.468c-29.243 20.495-48.126 54.043-48.126 92 0 61.745 49.965 111.821 111.669 112h0.017c0.020 0 0.044 0 0.068 0 5.686 0 11.025-1.483 15.653-4.083l-0.161 0.083 279.72-155.4c23.059 3.78 40.439 23.561 40.439 47.401 0 26.411-21.331 47.84-47.704 47.999h-0.015c-17.673 0-32 14.327-32 32s14.327 32 32 32v0c61.856 0 112-50.144 112-112s-50.144-112-112-112v0c-0.020 0-0.044 0-0.068 0-5.686 0-11.025 1.483-15.653 4.083l0.161-0.083-160 88.84c-73.79-15.217-128.48-79.654-128.48-156.865 0-77.052 54.466-141.384 126.998-156.593l1.041-0.183v156.8c0 17.673 14.327 32 32 32s32-14.327 32-32v0-156.76c55.557 11.676 99.864 50.856 118.566 102.324l0.354 1.116c4.674 12.25 16.326 20.793 29.974 20.793 17.673 0 32-14.327 32-32 0-3.633-0.605-7.124-1.721-10.379l0.067 0.225c-31.779-87.691-114.311-149.231-211.229-149.32h-0.011zM144.92 651.44c19.063 23.796 42.335 43.34 68.815 57.731l1.185 0.589-46.2 25.68c-23.264-3.594-40.866-23.475-40.866-47.467 0-14.599 6.517-27.675 16.801-36.479l0.065-0.055z" />
<glyph unicode="&#xe987;" glyph-name="asterisk-fill" data-tags="asterisk-fill" d="M512 864c-229.75 0-416-186.25-416-416s186.25-416 416-416c229.75 0 416 186.25 416 416v0c-0.25 229.65-186.35 415.75-415.976 416h-0.024zM768.48 331.44c9.367-5.697 15.528-15.849 15.528-27.44 0-17.678-14.331-32.008-32.008-32.008-6.087 0-11.777 1.699-16.621 4.648l0.141-0.080-191.52 114.92v-207.48c0-17.673-14.327-32-32-32s-32 14.327-32 32v0 207.48l-191.52-114.92c-4.703-2.87-10.393-4.568-16.48-4.568-17.678 0-32.008 14.331-32.008 32.008 0 11.591 6.161 21.743 15.387 27.36l0.141 0.080 194.28 116.56-194.28 116.56c-9.367 5.697-15.528 15.849-15.528 27.44 0 17.678 14.331 32.008 32.008 32.008 6.087 0 11.777-1.699 16.621-4.648l-0.141 0.080 191.52-114.92v207.48c0 17.673 14.327 32 32 32s32-14.327 32-32v0-207.48l191.52 114.92c4.703 2.87 10.393 4.568 16.48 4.568 17.678 0 32.008-14.331 32.008-32.008 0-11.591-6.161-21.743-15.387-27.36l-0.141-0.080-194.28-116.56z" />
<glyph unicode="&#xe988;" glyph-name="asterisk-simple-fill" data-tags="asterisk-simple-fill" d="M512 864c-229.75 0-416-186.25-416-416s186.25-416 416-416c229.75 0 416 186.25 416 416v0c-0.25 229.65-186.35 415.75-415.976 416h-0.024zM748.6 514.6l-184.6-79.080 132.52-159.040c4.61-5.507 7.409-12.667 7.409-20.48 0-17.678-14.331-32.009-32.009-32.009-9.865 0-18.687 4.463-24.559 11.479l-0.041 0.050-135.32 162.48-135.4-162.48c-5.913-7.067-14.735-11.529-24.6-11.529-17.678 0-32.009 14.331-32.009 32.009 0 7.813 2.799 14.973 7.45 20.53l-0.041-0.050 132.6 159.040-184.6 79.080c-11.967 4.812-20.262 16.322-20.262 29.77 0 17.673 14.327 32 32 32 4.885 0 9.515-1.095 13.657-3.052l-0.195 0.083 179.4-76.88v183.48c0 17.673 14.327 32 32 32s32-14.327 32-32v0-183.48l179.4 76.88c3.947 1.875 8.577 2.97 13.462 2.97 17.673 0 32-14.327 32-32 0-13.448-8.295-24.958-20.047-29.693l-0.215-0.077z" />
<glyph unicode="&#xe989;" glyph-name="at-fill" data-tags="at-fill" d="M928 448c0-2.040 0-4 0-6.080-1.36-57.040-22.52-121.92-112-121.92-92.56 0-112 69.6-112 128v160c0 0.021 0 0.046 0 0.070 0 17.673-14.327 32-32 32-0.746 0-1.486-0.026-2.219-0.076l0.099 0.005c-16.805-1.486-29.884-15.496-29.884-32.56 0-0.183 0.002-0.365 0.004-0.547v0.027-16c-33.831 30.418-78.815 49.021-128.145 49.021-106.039 0-192-85.961-192-192s85.961-192 192-192c63.464 0 119.736 30.791 154.692 78.25l0.372 0.529c4.389-7.626 8.858-14.16 13.771-20.326l-0.251 0.326c21.48-26.72 62.4-58.72 135.56-58.72 0.216-0.001 0.472-0.001 0.728-0.001 12.769 0 25.283 1.092 37.454 3.187l-1.302-0.185c0.791 0.139 1.702 0.218 2.632 0.218 8.837 0 16-7.163 16-16 0-3.034-0.845-5.872-2.312-8.289l0.040 0.071c-73.936-122.459-206.3-203.079-357.494-203.079-2.85 0-5.694 0.029-8.53 0.086l0.424-0.007c-219.12 4.4-398.84 180.56-407.32 399.56-0.204 4.866-0.32 10.576-0.32 16.313 0 229.75 186.25 416 416 416 229.706 0 415.928-186.177 416-415.866v-0.007zM384 448c0-70.692 57.308-128 128-128s128 57.308 128 128c0 70.692-57.308 128-128 128v0c-70.692 0-128-57.308-128-128v0z" />
<glyph unicode="&#xe98a;" glyph-name="atom-fill" data-tags="atom-fill" d="M784.48 448c98.6 138.44 148.88 281.52 78.96 351.44s-213 19.64-351.44-78.96c-138.44 98.6-281.52 148.88-351.44 78.96s-19.64-213 78.96-351.44c-98.6-138.44-148.88-281.52-78.96-351.44v0c22.52-22.52 52.6-32.56 87.64-32.56 73.88 0 169.92 44.68 264 111.52 93.68-66.84 189.68-111.52 263.8-111.52 35.040 0 65.16 10.080 87.64 32.56v0c69.72 69.92 19.44 213-79.16 351.44zM818.2 754.2c30.56-30.56 9.92-129.6-74.080-253.12-27.834 34.319-55.551 65.052-84.766 94.286l0.006-0.006c-29.22 29.138-59.952 56.816-92.045 82.882l-2.235 1.758c123.52 84 222.56 104.76 253.12 74.2zM205.8 754.2c8.8 8.84 23.32 13.4 42.48 13.4 47.28 0 122.76-27.6 210.6-87.6-34.309-27.836-65.027-55.513-94.269-84.669l0.029 0.029c-29.156-29.217-56.834-59.949-82.889-92.053l-1.751-2.227c-84 123.52-104.76 222.56-74.2 253.12zM205.8 141.8c-30.56 30.56-9.8 129.6 74.2 253.12 27.834-34.319 55.551-65.052 84.766-94.286l-0.006 0.006c29.196-29.132 59.889-56.807 91.934-82.885l2.226-1.755c-123.52-84-222.56-104.76-253.12-74.2zM512 400c-26.51 0-48 21.49-48 48s21.49 48 48 48c26.51 0 48-21.49 48-48v0c0-26.51-21.49-48-48-48v0zM818.2 141.76c-30.56-30.6-129.6-9.92-253.12 74.080 34.315 27.868 65.046 55.583 94.299 84.779l-0.019-0.019c29.153 29.225 56.831 59.97 82.885 92.086l1.755 2.234c84-123.52 104.76-222.56 74.2-253.12z" />
</font>
</defs>
</svg>
